<?xml version="1.0" standalone="no"?><!DOCTYPE svg PUBLIC "-//W3C//DTD SVG 1.1//EN" "http://www.w3.org/Graphics/SVG/1.1/DTD/svg11.dtd" ><svg xmlns="http://www.w3.org/2000/svg"><metadata></metadata><defs><font id="FONTLAB:OTFEXPORT" horiz-adv-x="2304"><font-face font-family="FontAwesome" font-weight="400" font-stretch="normal" units-per-em="1792" panose-1="0 0 0 0 0 0 0 0 0 0" ascent="1536" descent="-256" x-height="0" bbox="-83 -339 2433 1714" underline-thickness="0" underline-position="0" unicode-range="U+0009-f500" /><missing-glyph horiz-adv-x="896" d="M224 112 l0 1312 l448 0 l0 -1312 l-448 0 ZM112 0 l672 0 l0 1536 l-672 0 l0 -1536 Z" /><glyph glyph-name="space" unicode=" " d="" /><glyph glyph-name="asterisk" unicode="&#xf069;" d="M1482 486 l-266 154 l266 154 q46 28 60 78 q13 49 -13 97 l-64 110 q-28 46 -78 60 q-49 13 -97 -13 l-266 -153 l0 307 q-1 54 -38 90 q-36 37 -90 38 l-128 0 q-54 -1 -90 -38 q-37 -36 -38 -90 l0 -307 l-266 153 q-48 26 -97 13 q-50 -14 -78 -60 l-64 -110 q-26 -48 -12 -97 q13 -50 59 -78 l266 -154 l-266 -154 q-46 -28 -59 -78 q-14 -49 12 -97 l64 -110 q28 -46 78 -59 q49 -14 97 12 l266 153 l0 -307 q1 -54 38 -90 q36 -37 90 -38 l128 0 q54 1 90 38 q37 36 38 90 l0 307 l266 -153 q48 -26 97 -12 q50 13 78 59 l64 110 q26 48 13 97 q-14 50 -60 78 l0 0 Z" /><glyph glyph-name="plus" unicode="&#xf067;" d="M1408 800 q-1 41 -28 68 q-27 27 -68 28 l-416 0 l0 416 q-1 41 -28 68 q-27 27 -68 28 l-192 0 q-41 -1 -68 -28 q-27 -27 -28 -68 l0 -416 l-416 0 q-41 -1 -68 -28 q-27 -27 -28 -68 l0 -192 q1 -41 28 -68 q27 -27 68 -28 l416 0 l0 -416 q1 -41 28 -68 q27 -27 68 -28 l192 0 q41 1 68 28 q27 27 28 68 l0 416 l416 0 q41 1 68 28 q27 27 28 68 l0 192 Z" /><glyph glyph-name="question" unicode="&#xf128;" d="M704 280 q0 17 -12 28 q-11 12 -28 12 l-240 0 q-17 0 -28 -12 q-12 -11 -12 -28 l0 -240 q0 -17 12 -28 q11 -12 28 -12 l240 0 q17 0 28 12 q12 11 12 28 l0 240 ZM1020 880 q-8 175 -147 286 q-138 110 -307 114 q-153 0 -268 -66 q-115 -66 -196 -200 q-8 -14 -5 -28 q2 -15 15 -25 l164 -125 q12 -8 25 -8 q8 0 17 4 q8 4 14 12 q43 54 67 79 q23 25 40 36 q17 12 45 20 q29 9 63 9 q63 -1 107 -32 q45 -31 47 -74 q0 -47 -26 -77 q-26 -30 -83 -55 q-71 -31 -137 -102 q-66 -71 -71 -163 l0 -45 q0 -18 10 -36 q9 -19 26 -20 l240 0 q18 1 29 16 q11 15 11 32 l0 0 q0 24 26 64 q25 40 70 68 q76 37 148 107 q71 70 76 209 l0 0 Z" /><glyph glyph-name="acute" unicode="«´" d="" /><glyph glyph-name="dieresis" unicode="¨¬" d="" /><glyph glyph-name="AE" unicode="Æ" d="" /><glyph glyph-name="Oslash" unicode="¯Ø" d="" /><glyph glyph-name="trademark" unicode="ª&#x2122;" d="" /><glyph glyph-name="registered" unicode="®" d="" /><glyph glyph-name="minus" unicode="&#xf068;" d="M1408 800 q-1 41 -28 68 q-27 27 -68 28 l-1216 0 q-41 -1 -68 -28 q-27 -27 -28 -68 l0 -192 q1 -41 28 -68 q27 -27 68 -28 l1216 0 q41 1 68 28 q27 27 28 68 l0 192 Z" /><glyph glyph-name="copyright" unicode="©" d="" /><glyph glyph-name="glass" unicode="&#xf000;" d="M1699 1350 q-3 36 -36 47 q-33 12 -63 11 l-1408 0 q-30 1 -63 -11 q-33 -11 -36 -47 q1 -22 14 -42 q13 -21 29 -36 l632 -632 l0 -768 l-320 0 q-27 -1 -45 -19 q-18 -18 -19 -45 q1 -27 19 -45 q18 -18 45 -19 l896 0 q27 1 45 19 q18 18 19 45 q-1 27 -19 45 q-18 18 -45 19 l-320 0 l0 768 l632 632 q16 15 29 36 q13 20 14 42 l0 0 Z" /><glyph glyph-name="music" unicode="&#xf001;" d="M1536 1312 q-1 41 -28 68 q-27 27 -68 28 q-15 0 -28 -4 l-832 -256 q-30 -10 -49 -35 q-18 -25 -19 -57 l0 -967 q-45 20 -94 30 q-48 9 -98 9 q-92 1 -201 -43 q-109 -44 -119 -149 q10 -105 119 -149 q109 -44 201 -43 q92 -1 201 43 q109 44 119 149 l0 709 l768 237 l0 -537 q-45 20 -94 30 q-48 9 -98 9 q-92 1 -201 -43 q-109 -44 -119 -149 q10 -105 119 -149 q109 -44 201 -43 q92 -1 201 43 q109 44 119 149 l0 1120 Z" /><glyph glyph-name="search" unicode="&#xf002;" d="M1152 704 q-5 -190 -131 -317 q-127 -126 -317 -131 q-190 5 -317 131 q-126 127 -131 317 q5 190 131 317 q127 126 317 131 q190 -5 317 -131 q126 -127 131 -317 l0 0 ZM1664 -128 q0 26 -10 49 q-10 23 -27 41 l-343 343 q61 88 92 190 q32 102 32 209 q-8 299 -206 498 q-199 198 -498 206 q-299 -8 -498 -206 q-198 -199 -206 -498 q8 -299 206 -498 q199 -198 498 -206 q107 0 209 32 q102 31 190 92 l343 -342 q18 -18 41 -28 q23 -10 49 -10 q54 1 90 38 q37 36 38 90 l0 0 Z" /><glyph glyph-name="envelope" unicode="&#xf003;" d="M1664 32 q0 -13 -10 -22 q-9 -10 -22 -10 l-1472 0 q-13 0 -22 10 q-10 9 -10 22 l0 768 q32 -36 69 -66 q107 -82 215 -167 q107 -84 211 -171 q56 -50 125 -94 q69 -43 147 -46 l1 0 l1 0 q78 3 147 46 q69 44 125 94 q104 87 212 171 q107 85 214 167 q38 30 69 66 l0 -768 ZM1664 1083 q-3 -66 -49 -136 q-46 -70 -98 -111 q-201 -158 -401 -317 q-42 -37 -103 -84 q-61 -47 -116 -51 l-1 0 l-1 0 q-55 4 -116 51 q-61 47 -103 84 q-200 159 -401 317 q-68 54 -107 126 q-39 72 -40 158 q0 13 10 22 q9 10 22 10 l1472 0 q27 -2 30 -25 q4 -23 2 -44 l0 0 ZM1792 1120 q-2 68 -47 113 q-45 45 -113 47 l-1472 0 q-68 -2 -113 -47 q-45 -45 -47 -113 l0 -1088 q2 -68 47 -113 q45 -45 113 -47 l1472 0 q68 2 113 47 q45 45 47 113 l0 1088 Z" /><glyph glyph-name="heart" unicode="&#xf004;" d="M896 -128 q12 0 24 5 q11 4 20 13 l623 600 q20 12 118 138 q98 127 111 312 q-2 222 -127 344 q-125 122 -351 124 q-134 -6 -245 -79 q-111 -72 -173 -137 q-62 65 -173 137 q-111 73 -245 79 q-226 -2 -351 -124 q-125 -122 -127 -344 q14 -185 111 -311 q98 -127 117 -137 l624 -602 q9 -9 21 -13 q11 -5 23 -5 l0 0 Z" /><glyph glyph-name="star" unicode="&#xf005;" d="M1664 889 q-1 22 -19 33 q-18 10 -37 13 l-502 73 l-225 455 q-7 15 -19 28 q-13 12 -30 13 q-17 -1 -30 -13 q-12 -13 -19 -28 l-225 -455 l-502 -73 q-20 -3 -37 -13 q-18 -11 -19 -33 q0 -14 8 -26 q8 -12 17 -22 l364 -354 l-86 -500 q-1 -5 -1 -10 q-1 -5 -1 -10 q0 -20 10 -35 q10 -14 32 -15 q10 0 20 3 q10 4 20 9 l449 236 l449 -236 q9 -5 19 -9 q10 -3 21 -3 q22 1 31 15 q10 15 10 35 q0 5 0 10 q0 5 -1 10 l-86 500 l363 354 q10 10 18 22 q8 12 8 26 l0 0 Z" /><glyph glyph-name="star_empty" unicode="&#xf006;" d="M1137 532 l72 -421 l-377 199 l-378 -199 l73 421 l-306 297 l422 62 l189 382 l189 -382 l422 -62 l-306 -297 ZM1664 889 q-1 22 -19 33 q-18 10 -37 13 l-502 73 l-225 455 q-7 15 -19 28 q-13 12 -30 13 q-17 -1 -30 -13 q-12 -13 -19 -28 l-225 -455 l-502 -73 q-20 -3 -37 -13 q-18 -11 -19 -33 q0 -14 8 -26 q8 -12 17 -22 l364 -354 l-86 -500 q-1 -5 -1 -10 q-1 -5 -1 -10 q0 -20 10 -35 q10 -14 32 -15 q10 0 20 3 q10 4 20 9 l449 236 l449 -236 q9 -5 19 -9 q10 -3 21 -3 q22 1 31 15 q10 14 10 35 q0 5 0 10 q0 5 -1 10 l-86 500 l363 354 q10 10 18 22 q8 12 8 26 l0 0 Z" /><glyph glyph-name="user" unicode="&#xf007;" d="M1280 137 q4 208 -65 382 q-70 174 -262 185 q-61 -60 -141 -94 q-80 -33 -172 -34 q-92 1 -172 34 q-80 34 -141 94 q-192 -11 -262 -185 q-69 -174 -65 -382 q2 -112 63 -187 q60 -75 150 -78 l854 0 q90 3 150 78 q61 75 63 187 l0 0 ZM1024 1024 q-4 163 -112 272 q-109 108 -272 112 q-163 -4 -271 -112 q-109 -109 -113 -272 q4 -163 113 -271 q108 -109 271 -113 q163 4 272 113 q108 108 112 271 l0 0 Z" /><glyph glyph-name="film" unicode="&#xf008;" d="M384 -64 q-1 -27 -19 -45 q-18 -18 -45 -19 l-128 0 q-27 1 -45 19 q-18 18 -19 45 l0 128 q1 27 19 45 q18 18 45 19 l128 0 q27 -1 45 -19 q18 -18 19 -45 l0 -128 ZM384 320 q-1 -27 -19 -45 q-18 -18 -45 -19 l-128 0 q-27 1 -45 19 q-18 18 -19 45 l0 128 q1 27 19 45 q18 18 45 19 l128 0 q27 -1 45 -19 q18 -18 19 -45 l0 -128 ZM384 704 q-1 -27 -19 -45 q-18 -18 -45 -19 l-128 0 q-27 1 -45 19 q-18 18 -19 45 l0 128 q1 27 19 45 q18 18 45 19 l128 0 q27 -1 45 -19 q18 -18 19 -45 l0 -128 ZM1408 -64 q-1 -27 -19 -45 q-18 -18 -45 -19 l-768 0 q-27 1 -45 19 q-18 18 -19 45 l0 512 q1 27 19 45 q18 18 45 19 l768 0 q27 -1 45 -19 q18 -18 19 -45 l0 -512 ZM384 1088 q-1 -27 -19 -45 q-18 -18 -45 -19 l-128 0 q-27 1 -45 19 q-18 18 -19 45 l0 128 q1 27 19 45 q18 18 45 19 l128 0 q27 -1 45 -19 q18 -18 19 -45 l0 -128 ZM1792 -64 q-1 -27 -19 -45 q-18 -18 -45 -19 l-128 0 q-27 1 -45 19 q-18 18 -19 45 l0 128 q1 27 19 45 q18 18 45 19 l128 0 q27 -1 45 -19 q18 -18 19 -45 l0 -128 ZM1408 704 q-1 -27 -19 -45 q-18 -18 -45 -19 l-768 0 q-27 1 -45 19 q-18 18 -19 45 l0 512 q1 27 19 45 q18 18 45 19 l768 0 q27 -1 45 -19 q18 -18 19 -45 l0 -512 ZM1792 320 q-1 -27 -19 -45 q-18 -18 -45 -19 l-128 0 q-27 1 -45 19 q-18 18 -19 45 l0 128 q1 27 19 45 q18 18 45 19 l128 0 q27 -1 45 -19 q18 -18 19 -45 l0 -128 ZM1792 704 q-1 -27 -19 -45 q-18 -18 -45 -19 l-128 0 q-27 1 -45 19 q-18 18 -19 45 l0 128 q1 27 19 45 q18 18 45 19 l128 0 q27 -1 45 -19 q18 -18 19 -45 l0 -128 ZM1792 1088 q-1 -27 -19 -45 q-18 -18 -45 -19 l-128 0 q-27 1 -45 19 q-18 18 -19 45 l0 128 q1 27 19 45 q18 18 45 19 l128 0 q27 -1 45 -19 q18 -18 19 -45 l0 -128 ZM1920 1248 q-2 68 -47 113 q-45 45 -113 47 l-1600 0 q-68 -2 -113 -47 q-45 -45 -47 -113 l0 -1344 q2 -68 47 -113 q45 -45 113 -47 l1600 0 q68 2 113 47 q45 45 47 113 l0 1344 Z" /><glyph glyph-name="th_large" unicode="&#xf009;" d="M768 512 q-1 54 -38 90 q-36 37 -90 38 l-512 0 q-54 -1 -90 -38 q-37 -36 -38 -90 l0 -384 q1 -54 38 -90 q36 -37 90 -38 l512 0 q54 1 90 38 q37 36 38 90 l0 384 ZM768 1280 q-1 54 -38 90 q-36 37 -90 38 l-512 0 q-54 -1 -90 -38 q-37 -36 -38 -90 l0 -384 q1 -54 38 -90 q36 -37 90 -38 l512 0 q54 1 90 38 q37 36 38 90 l0 384 ZM1664 512 q-1 54 -38 90 q-36 37 -90 38 l-512 0 q-54 -1 -90 -38 q-37 -36 -38 -90 l0 -384 q1 -54 38 -90 q36 -37 90 -38 l512 0 q54 1 90 38 q37 36 38 90 l0 384 ZM1664 1280 q-1 54 -38 90 q-36 37 -90 38 l-512 0 q-54 -1 -90 -38 q-37 -36 -38 -90 l0 -384 q1 -54 38 -90 q36 -37 90 -38 l512 0 q54 1 90 38 q37 36 38 90 l0 384 Z" /><glyph glyph-name="th" unicode="&#xf00a;" d="M512 288 q-1 41 -28 68 q-27 27 -68 28 l-320 0 q-41 -1 -68 -28 q-27 -27 -28 -68 l0 -192 q1 -41 28 -68 q27 -27 68 -28 l320 0 q41 1 68 28 q27 27 28 68 l0 192 ZM512 800 q-1 41 -28 68 q-27 27 -68 28 l-320 0 q-41 -1 -68 -28 q-27 -27 -28 -68 l0 -192 q1 -41 28 -68 q27 -27 68 -28 l320 0 q41 1 68 28 q27 27 28 68 l0 192 ZM1152 288 q-1 41 -28 68 q-27 27 -68 28 l-320 0 q-41 -1 -68 -28 q-27 -27 -28 -68 l0 -192 q1 -41 28 -68 q27 -27 68 -28 l320 0 q41 1 68 28 q27 27 28 68 l0 192 ZM512 1312 q-1 41 -28 68 q-27 27 -68 28 l-320 0 q-41 -1 -68 -28 q-27 -27 -28 -68 l0 -192 q1 -41 28 -68 q27 -27 68 -28 l320 0 q41 1 68 28 q27 27 28 68 l0 192 ZM1152 800 q-1 41 -28 68 q-27 27 -68 28 l-320 0 q-41 -1 -68 -28 q-27 -27 -28 -68 l0 -192 q1 -41 28 -68 q27 -27 68 -28 l320 0 q41 1 68 28 q27 27 28 68 l0 192 ZM1792 288 q-1 41 -28 68 q-27 27 -68 28 l-320 0 q-41 -1 -68 -28 q-27 -27 -28 -68 l0 -192 q1 -41 28 -68 q27 -27 68 -28 l320 0 q41 1 68 28 q27 27 28 68 l0 192 ZM1152 1312 q-1 41 -28 68 q-27 27 -68 28 l-320 0 q-41 -1 -68 -28 q-27 -27 -28 -68 l0 -192 q1 -41 28 -68 q27 -27 68 -28 l320 0 q41 1 68 28 q27 27 28 68 l0 192 ZM1792 800 q-1 41 -28 68 q-27 27 -68 28 l-320 0 q-41 -1 -68 -28 q-27 -27 -28 -68 l0 -192 q1 -41 28 -68 q27 -27 68 -28 l320 0 q41 1 68 28 q27 27 28 68 l0 192 ZM1792 1312 q-1 41 -28 68 q-27 27 -68 28 l-320 0 q-41 -1 -68 -28 q-27 -27 -28 -68 l0 -192 q1 -41 28 -68 q27 -27 68 -28 l320 0 q41 1 68 28 q27 27 28 68 l0 192 Z" /><glyph glyph-name="th_list" unicode="&#xf00b;" d="M512 288 q-1 41 -28 68 q-27 27 -68 28 l-320 0 q-41 -1 -68 -28 q-27 -27 -28 -68 l0 -192 q1 -41 28 -68 q27 -27 68 -28 l320 0 q41 1 68 28 q27 27 28 68 l0 192 ZM512 800 q-1 41 -28 68 q-27 27 -68 28 l-320 0 q-41 -1 -68 -28 q-27 -27 -28 -68 l0 -192 q1 -41 28 -68 q27 -27 68 -28 l320 0 q41 1 68 28 q27 27 28 68 l0 192 ZM1792 288 q-1 41 -28 68 q-27 27 -68 28 l-960 0 q-41 -1 -68 -28 q-27 -27 -28 -68 l0 -192 q1 -41 28 -68 q27 -27 68 -28 l960 0 q41 1 68 28 q27 27 28 68 l0 192 ZM512 1312 q-1 41 -28 68 q-27 27 -68 28 l-320 0 q-41 -1 -68 -28 q-27 -27 -28 -68 l0 -192 q1 -41 28 -68 q27 -27 68 -28 l320 0 q41 1 68 28 q27 27 28 68 l0 192 ZM1792 800 q-1 41 -28 68 q-27 27 -68 28 l-960 0 q-41 -1 -68 -28 q-27 -27 -28 -68 l0 -192 q1 -41 28 -68 q27 -27 68 -28 l960 0 q41 1 68 28 q27 27 28 68 l0 192 ZM1792 1312 q-1 41 -28 68 q-27 27 -68 28 l-960 0 q-41 -1 -68 -28 q-27 -27 -28 -68 l0 -192 q1 -41 28 -68 q27 -27 68 -28 l960 0 q41 1 68 28 q27 27 28 68 l0 192 Z" /><glyph glyph-name="ok" unicode="&#xf00c;" d="M1671 970 q0 19 -7 37 q-7 17 -21 31 l-136 136 q-14 14 -31 21 q-18 7 -37 7 q-19 0 -37 -7 q-17 -7 -31 -21 l-656 -657 l-294 295 q-14 14 -31 21 q-18 7 -37 7 q-19 0 -37 -7 q-17 -7 -31 -21 l-136 -136 q-14 -14 -21 -31 q-7 -18 -7 -37 q0 -19 7 -37 q7 -17 21 -31 l362 -362 l136 -136 q14 -14 31 -21 q18 -7 37 -7 q19 0 37 7 q17 7 31 21 l136 136 l724 724 q14 14 21 31 q7 18 7 37 l0 0 Z" /><glyph glyph-name="remove" unicode="&#xf00d;" d="M1298 214 q0 19 -7 37 q-7 17 -21 31 l-294 294 l294 294 q14 14 21 31 q7 18 7 37 q0 19 -7 37 q-7 17 -21 31 l-136 136 q-14 14 -31 21 q-18 7 -37 7 q-19 0 -37 -7 q-17 -7 -31 -21 l-294 -294 l-294 294 q-14 14 -31 21 q-18 7 -37 7 q-19 0 -37 -7 q-17 -7 -31 -21 l-136 -136 q-14 -14 -21 -31 q-7 -18 -7 -37 q0 -19 7 -37 q7 -17 21 -31 l294 -294 l-294 -294 q-14 -14 -21 -31 q-7 -18 -7 -37 q0 -19 7 -37 q7 -17 21 -31 l136 -136 q14 -14 31 -21 q18 -7 37 -7 q19 0 37 7 q17 7 31 21 l294 294 l294 -294 q14 -14 31 -21 q18 -7 37 -7 q19 0 37 7 q17 7 31 21 l136 136 q14 14 21 31 q7 18 7 37 l0 0 Z" /><glyph glyph-name="zoom_in" unicode="&#xf00e;" d="M1024 736 q0 13 -10 22 q-9 10 -22 10 l-224 0 l0 224 q0 13 -10 22 q-9 10 -22 10 l-64 0 q-13 0 -22 -10 q-10 -9 -10 -22 l0 -224 l-224 0 q-13 0 -22 -10 q-10 -9 -10 -22 l0 -64 q0 -13 10 -22 q9 -10 22 -10 l224 0 l0 -224 q0 -13 10 -22 q9 -10 22 -10 l64 0 q13 0 22 10 q10 9 10 22 l0 224 l224 0 q13 0 22 10 q10 9 10 22 l0 64 ZM1152 704 q-5 -190 -131 -317 q-127 -126 -317 -131 q-190 5 -317 131 q-126 127 -131 317 q5 190 131 317 q127 126 317 131 q190 -5 317 -131 q126 -127 131 -317 l0 0 ZM1664 -128 q0 26 -10 49 q-10 23 -27 41 l-343 343 q61 88 92 190 q32 102 32 209 q-8 299 -206 498 q-199 198 -498 206 q-299 -8 -498 -206 q-198 -199 -206 -498 q8 -299 206 -498 q199 -198 498 -206 q107 0 209 32 q102 31 190 92 l343 -342 q18 -18 41 -28 q23 -10 49 -10 q55 1 91 37 q36 36 37 91 l0 0 Z" /><glyph glyph-name="zoom_out" unicode="&#xf010;" d="M1024 736 q0 13 -10 22 q-9 10 -22 10 l-576 0 q-13 0 -22 -10 q-10 -9 -10 -22 l0 -64 q0 -13 10 -22 q9 -10 22 -10 l576 0 q13 0 22 10 q10 9 10 22 l0 64 ZM1152 704 q-5 -190 -131 -317 q-127 -126 -317 -131 q-190 5 -317 131 q-126 127 -131 317 q5 190 131 317 q127 126 317 131 q190 -5 317 -131 q126 -127 131 -317 l0 0 ZM1664 -128 q0 26 -10 49 q-10 23 -27 41 l-343 343 q61 88 92 190 q32 102 32 209 q-8 299 -206 498 q-199 198 -498 206 q-299 -8 -498 -206 q-198 -199 -206 -498 q8 -299 206 -498 q199 -198 498 -206 q107 0 209 32 q102 31 190 92 l343 -342 q18 -18 41 -28 q23 -10 49 -10 q55 1 91 37 q36 36 37 91 l0 0 Z" /><glyph glyph-name="off" unicode="&#xf011;" d="M1536 640 q-1 184 -80 343 q-80 159 -227 270 q-44 32 -95 25 q-50 -7 -84 -50 q-32 -44 -25 -95 q8 -50 50 -84 q98 -75 151 -180 q53 -106 54 -229 q-6 -217 -150 -362 q-145 -144 -362 -150 q-217 6 -362 150 q-144 145 -150 362 q1 123 54 229 q53 105 151 180 q42 34 50 84 q7 51 -25 95 q-33 43 -84 50 q-50 7 -95 -25 q-147 -111 -227 -270 q-79 -159 -80 -343 q8 -326 225 -543 q217 -217 543 -225 q326 8 543 225 q217 217 225 543 l0 0 ZM896 1408 q-1 54 -38 90 q-36 37 -90 38 q-54 -1 -90 -38 q-37 -36 -38 -90 l0 -640 q1 -54 38 -90 q36 -37 90 -38 q54 1 90 38 q37 36 38 90 l0 640 Z" /><glyph glyph-name="signal" unicode="&#xf012;" d="M256 96 q0 14 -9 23 q-9 9 -23 9 l-192 0 q-14 0 -23 -9 q-9 -9 -9 -23 l0 -192 q0 -14 9 -23 q9 -9 23 -9 l192 0 q14 0 23 9 q9 9 9 23 l0 192 ZM640 224 q0 14 -9 23 q-9 9 -23 9 l-192 0 q-14 0 -23 -9 q-9 -9 -9 -23 l0 -320 q0 -14 9 -23 q9 -9 23 -9 l192 0 q14 0 23 9 q9 9 9 23 l0 320 ZM1024 480 q0 14 -9 23 q-9 9 -23 9 l-192 0 q-14 0 -23 -9 q-9 -9 -9 -23 l0 -576 q0 -14 9 -23 q9 -9 23 -9 l192 0 q14 0 23 9 q9 9 9 23 l0 576 ZM1408 864 q0 14 -9 23 q-9 9 -23 9 l-192 0 q-14 0 -23 -9 q-9 -9 -9 -23 l0 -960 q0 -14 9 -23 q9 -9 23 -9 l192 0 q14 0 23 9 q9 9 9 23 l0 960 ZM1792 1376 q0 14 -9 23 q-9 9 -23 9 l-192 0 q-14 0 -23 -9 q-9 -9 -9 -23 l0 -1472 q0 -14 9 -23 q9 -9 23 -9 l192 0 q14 0 23 9 q9 9 9 23 l0 1472 Z" /><glyph glyph-name="cog" unicode="&#xf013;" d="M1024 640 q-3 -109 -75 -181 q-72 -72 -181 -75 q-109 3 -181 75 q-72 72 -75 181 q3 109 75 181 q72 72 181 75 q109 -3 181 -75 q72 -72 75 -181 l0 0 ZM1536 749 q0 13 -8 23 q-8 10 -21 13 l-183 28 q-15 50 -41 98 q26 35 53 69 q26 34 52 68 q4 5 6 11 q2 5 2 12 q0 6 -2 12 q-1 5 -5 10 q-33 45 -78 89 q-46 44 -87 81 q-5 5 -12 7 q-6 3 -13 3 q-7 0 -13 -2 q-6 -2 -11 -7 l-142 -107 q-43 22 -90 37 l-28 184 q-2 13 -12 21 q-10 9 -24 9 l-222 0 q-14 0 -23 -8 q-10 -8 -13 -20 q-12 -45 -18 -93 q-6 -47 -11 -93 q-23 -8 -46 -17 q-23 -10 -45 -21 l-138 107 q-6 5 -13 7 q-6 3 -13 3 q-32 -8 -100 -77 q-68 -69 -93 -102 q-4 -5 -6 -11 q-3 -5 -3 -12 q1 -13 10 -24 q28 -34 55 -68 q26 -34 52 -70 q-24 -44 -39 -92 l-186 -28 q-12 -3 -19 -13 q-8 -11 -8 -23 l0 -222 q0 -13 8 -23 q8 -10 21 -13 l183 -27 q15 -51 41 -99 q-26 -35 -52 -69 q-27 -34 -53 -68 q-4 -5 -6 -11 q-2 -5 -2 -12 q0 -12 7 -23 q33 -44 78 -88 q46 -43 87 -80 q5 -5 12 -8 q6 -3 13 -3 q14 0 25 9 l141 107 q44 -22 90 -37 l28 -184 q2 -13 12 -21 q10 -9 24 -9 l222 0 q14 0 23 8 q10 8 13 20 q12 45 18 93 q6 47 11 93 q23 8 46 17 q23 10 45 21 l138 -108 q6 -4 13 -6 q6 -3 13 -3 q32 8 100 78 q68 69 93 101 q9 10 9 23 q0 7 -3 13 q-2 7 -7 12 q-28 34 -55 68 q-26 33 -52 70 q12 22 21 44 q10 23 18 47 l185 28 q12 3 20 14 q8 10 8 22 l0 222 Z" /><glyph glyph-name="trash" unicode="&#xf014;" d="M512 800 q0 14 -9 23 q-9 9 -23 9 l-64 0 q-14 0 -23 -9 q-9 -9 -9 -23 l0 -576 q0 -14 9 -23 q9 -9 23 -9 l64 0 q14 0 23 9 q9 9 9 23 l0 576 ZM768 800 q0 14 -9 23 q-9 9 -23 9 l-64 0 q-14 0 -23 -9 q-9 -9 -9 -23 l0 -576 q0 -14 9 -23 q9 -9 23 -9 l64 0 q14 0 23 9 q9 9 9 23 l0 576 ZM1024 800 q0 14 -9 23 q-9 9 -23 9 l-64 0 q-14 0 -23 -9 q-9 -9 -9 -23 l0 -576 q0 -14 9 -23 q9 -9 23 -9 l64 0 q14 0 23 9 q9 9 9 23 l0 576 ZM1152 76 q-2 -36 -14 -56 q-13 -20 -18 -20 l-832 0 q-5 0 -18 20 q-12 20 -14 56 l0 948 l896 0 l0 -948 ZM480 1152 l49 117 q2 3 7 7 q5 3 10 4 l317 0 q4 -1 9 -4 q5 -4 8 -7 l48 -117 l-448 0 ZM1408 1120 q0 14 -9 23 q-9 9 -23 9 l-309 0 l-70 167 q-16 38 -54 63 q-38 25 -79 26 l-320 0 q-41 -1 -79 -26 q-38 -25 -54 -63 l-70 -167 l-309 0 q-14 0 -23 -9 q-9 -9 -9 -23 l0 -64 q0 -14 9 -23 q9 -9 23 -9 l96 0 l0 -952 q2 -85 47 -141 q45 -57 113 -59 l832 0 q68 2 113 61 q45 58 47 143 l0 948 l96 0 q14 0 23 9 q9 9 9 23 l0 64 Z" /><glyph glyph-name="home" unicode="&#xf015;" d="M1408 544 q0 3 -1 6 l-575 474 l-575 -474 q0 -3 -1 -6 l0 -480 q1 -27 19 -45 q18 -18 45 -19 l384 0 l0 384 l256 0 l0 -384 l384 0 q27 1 45 19 q18 18 19 45 l0 480 ZM1631 613 q8 10 7 23 q-1 13 -11 22 l-219 182 l0 408 q0 14 -9 23 q-9 9 -23 9 l-192 0 q-14 0 -23 -9 q-9 -9 -9 -23 l0 -195 l-244 204 q-33 26 -76 26 q-43 0 -76 -26 l-719 -599 q-10 -9 -11 -22 q-1 -13 7 -23 l62 -74 q4 -5 9 -7 q6 -3 12 -4 q14 -1 24 7 l692 577 l692 -577 q9 -7 21 -7 q2 0 3 0 q6 1 12 4 q5 2 9 7 l62 74 Z" /><glyph glyph-name="file_alt" unicode="&#xf016;" d="M1468 1156 l-312 312 q-30 29 -76 48 q-46 19 -88 20 l-896 0 q-41 -1 -68 -28 q-27 -27 -28 -68 l0 -1600 q1 -41 28 -68 q27 -27 68 -28 l1344 0 q41 1 68 28 q27 27 28 68 l0 1152 q-1 42 -20 88 q-19 46 -48 76 l0 0 ZM1024 1400 q13 -5 24 -11 q11 -6 17 -11 l313 -313 q5 -6 11 -17 q6 -11 11 -24 l-376 0 l0 376 ZM1408 -128 l-1280 0 l0 1536 l768 0 l0 -416 q1 -41 28 -68 q27 -27 68 -28 l416 0 l0 -1024 Z" /><glyph glyph-name="time" unicode="&#xf017;" d="M896 992 q0 14 -9 23 q-9 9 -23 9 l-64 0 q-14 0 -23 -9 q-9 -9 -9 -23 l0 -352 l-224 0 q-14 0 -23 -9 q-9 -9 -9 -23 l0 -64 q0 -14 9 -23 q9 -9 23 -9 l320 0 q14 0 23 9 q9 9 9 23 l0 448 ZM1312 640 q-6 -231 -159 -384 q-154 -154 -385 -160 q-231 6 -384 160 q-154 153 -160 384 q6 231 160 385 q153 153 384 159 q231 -6 385 -159 q153 -154 159 -385 l0 0 ZM1536 640 q-8 326 -225 543 q-217 217 -543 225 q-326 -8 -543 -225 q-217 -217 -225 -543 q8 -326 225 -543 q217 -217 543 -225 q326 8 543 225 q217 217 225 543 l0 0 Z" /><glyph glyph-name="road" unicode="&#xf018;" d="M1111 540 q0 -12 -8 -20 q-9 -8 -21 -8 l-244 0 q-12 0 -20 8 q-9 8 -9 20 l0 4 l24 320 q1 14 11 23 q10 9 23 9 l186 0 q13 0 23 -9 q10 -9 11 -23 l24 -320 l0 -4 ZM1870 73 q0 30 -7 60 q-8 29 -19 56 l-417 1044 q-8 19 -26 33 q-17 13 -38 14 l-339 0 q13 0 23 -9 q10 -9 11 -23 l15 -192 q0 -14 -8 -23 q-8 -9 -22 -9 l-166 0 q-14 0 -22 9 q-8 9 -8 23 l15 192 q1 14 11 23 q10 9 23 9 l-339 0 q-21 -1 -38 -14 q-18 -14 -26 -33 l-417 -1044 q-11 -27 -19 -56 q-7 -30 -7 -60 q-1 -24 9 -47 q9 -24 37 -26 l704 0 q-13 0 -22 9 q-8 9 -8 23 l20 256 q1 14 11 23 q10 9 23 9 l272 0 q13 0 23 -9 q10 -9 11 -23 l20 -256 q0 -14 -8 -23 q-9 -9 -22 -9 l704 0 q28 2 37 26 q10 23 9 47 l0 0 Z" /><glyph glyph-name="download_alt" unicode="&#xf019;" d="M1280 192 q-1 -27 -19 -45 q-18 -18 -45 -19 q-27 1 -45 19 q-18 18 -19 45 q1 27 19 45 q18 18 45 19 q27 -1 45 -19 q18 -18 19 -45 l0 0 ZM1536 192 q-1 -27 -19 -45 q-18 -18 -45 -19 q-27 1 -45 19 q-18 18 -19 45 q1 27 19 45 q18 18 45 19 q27 -1 45 -19 q18 -18 19 -45 l0 0 ZM1664 416 q-1 41 -28 68 q-27 27 -68 28 l-464 0 l-136 -136 q-28 -27 -63 -41 q-34 -15 -73 -15 q-38 0 -73 15 q-35 14 -63 41 l-135 136 l-465 0 q-41 -1 -68 -28 q-27 -27 -28 -68 l0 -320 q1 -41 28 -68 q27 -27 68 -28 l1472 0 q41 1 68 28 q27 27 28 68 l0 320 ZM1339 985 q-8 18 -23 28 q-16 11 -36 11 l-256 0 l0 448 q-1 27 -19 45 q-18 18 -45 19 l-256 0 q-27 -1 -45 -19 q-18 -18 -19 -45 l0 -448 l-256 0 q-20 0 -35 -11 q-16 -10 -24 -28 q-7 -18 -4 -37 q4 -19 18 -33 l448 -448 q9 -10 21 -14 q12 -5 24 -5 q12 0 24 5 q12 4 21 14 l448 448 q14 14 18 33 q3 19 -4 37 l0 0 Z" /><glyph glyph-name="download" unicode="&#xf01a;" d="M1120 608 q0 14 -9 23 q-9 9 -23 9 l0 0 l-192 0 l0 352 q0 14 -9 23 q-9 9 -23 9 l-192 0 q-14 0 -23 -9 q-9 -9 -9 -23 l0 -352 l-192 0 q-10 0 -18 -5 q-8 -6 -12 -15 q-4 -9 -2 -18 q2 -9 9 -17 l320 -320 q11 -9 23 -9 q12 0 23 9 l319 319 q10 11 10 24 l0 0 ZM768 1184 q231 -6 385 -159 q153 -154 159 -385 q-6 -231 -159 -384 q-154 -154 -385 -160 q-231 6 -384 160 q-154 153 -160 384 q6 231 160 385 q153 153 384 159 l0 0 ZM1536 640 q-8 326 -225 543 q-217 217 -543 225 l0 0 q-326 -8 -543 -225 q-217 -217 -225 -543 q8 -326 225 -543 q217 -217 543 -225 q326 8 543 225 q217 217 225 543 l0 0 Z" /><glyph glyph-name="upload" unicode="&#xf01b;" d="M1118 660 q4 9 2 18 q-2 9 -9 17 l-320 320 q-11 9 -23 9 q-12 0 -23 -9 l-319 -319 q-9 -10 -10 -24 q0 -14 9 -23 q9 -9 23 -9 l0 0 l192 0 l0 -352 q0 -14 9 -23 q9 -9 23 -9 l192 0 q14 0 23 9 q9 9 9 23 l0 352 l192 0 q10 0 18 6 q8 5 12 14 l0 0 ZM768 1184 q231 -6 385 -159 q153 -154 159 -385 q-6 -231 -159 -384 q-154 -154 -385 -160 q-231 6 -384 160 q-154 153 -160 384 q6 231 160 385 q153 153 384 159 l0 0 ZM1536 640 q-8 326 -225 543 q-217 217 -543 225 l0 0 q-326 -8 -543 -225 q-217 -217 -225 -543 q8 -326 225 -543 q217 -217 543 -225 q326 8 543 225 q217 217 225 543 l0 0 Z" /><glyph glyph-name="inbox" unicode="&#xf01c;" d="M1023 576 l-95 -192 l-320 0 l-95 192 l-316 0 q1 4 3 8 q1 4 2 8 l212 496 l708 0 l212 -496 q1 -4 3 -8 q1 -4 2 -8 l-316 0 ZM1536 546 q0 28 -7 62 q-7 34 -18 61 l-238 552 q-11 25 -37 42 q-25 16 -52 17 l-832 0 q-27 -1 -52 -17 q-26 -17 -37 -42 l-238 -552 q-11 -27 -18 -61 q-7 -34 -7 -62 l0 -482 q1 -27 19 -45 q18 -18 45 -19 l1408 0 q27 1 45 19 q18 18 19 45 l0 482 Z" /><glyph glyph-name="play_circle" unicode="&#xf01d;" d="M1184 640 q0 18 -8 32 q-9 15 -24 23 l-544 320 q-15 9 -32 9 q-17 0 -32 -8 q-15 -9 -23 -24 q-9 -15 -9 -32 l0 -640 q0 -17 9 -32 q8 -15 23 -24 q15 -8 32 -8 q17 0 32 9 l544 320 q15 9 24 23 q8 15 8 32 l0 0 ZM1312 640 q-6 -231 -159 -384 q-154 -154 -385 -160 q-231 6 -384 160 q-154 153 -160 384 q6 231 160 385 q153 153 384 159 q231 -6 385 -159 q153 -154 159 -385 l0 0 ZM1536 640 q-8 326 -225 543 q-217 217 -543 225 q-326 -8 -543 -225 q-217 -217 -225 -543 q8 -326 225 -543 q217 -217 543 -225 q326 8 543 225 q217 217 225 543 l0 0 Z" /><glyph glyph-name="repeat" unicode="&#xf01e;" d="M1536 1280 q0 20 -11 36 q-10 15 -28 23 q-18 7 -37 4 q-19 -4 -33 -18 l-130 -129 q-107 101 -243 156 q-137 55 -286 56 q-326 -8 -543 -225 q-217 -217 -225 -543 q8 -326 225 -543 q217 -217 543 -225 q174 1 327 73 q153 71 264 204 q8 10 7 22 q0 12 -9 21 l-137 138 q-11 9 -25 9 q-7 -1 -13 -4 q-6 -3 -10 -8 q-75 -96 -179 -147 q-105 -51 -225 -52 q-217 6 -362 150 q-144 145 -150 362 q6 217 150 362 q145 144 362 150 q99 0 188 -36 q90 -35 161 -101 l-138 -138 q-14 -14 -18 -33 q-3 -18 4 -36 q8 -18 24 -29 q15 -11 35 -11 l448 0 q27 1 45 19 q18 18 19 45 l0 448 Z" /><glyph glyph-name="refresh" unicode="&#xf021;" d="M1511 480 q0 13 -9 22 q-9 10 -23 10 l-192 0 q-11 0 -19 -6 q-7 -6 -11 -17 q-12 -30 -24 -59 q-12 -29 -29 -58 q-72 -115 -186 -179 q-115 -64 -250 -65 q-98 0 -187 36 q-90 36 -161 102 l137 137 q9 9 14 21 q5 11 5 24 q-1 27 -19 45 q-18 18 -45 19 l-448 0 q-27 -1 -45 -19 q-18 -18 -19 -45 l0 -448 q1 -27 19 -45 q18 -18 45 -19 q13 0 24 5 q12 5 21 14 l129 129 q108 -102 243 -157 q135 -54 283 -55 q281 4 480 168 q198 163 266 433 q1 2 1 4 q0 1 0 3 l0 0 ZM1536 1280 q-1 27 -19 45 q-18 18 -45 19 q-13 0 -24 -5 q-12 -5 -21 -14 l-130 -129 q-108 101 -244 156 q-137 55 -285 56 q-281 -4 -481 -167 q-200 -163 -269 -434 q0 -3 0 -7 q0 -13 9 -22 q9 -10 23 -10 l199 0 q11 0 19 6 q7 6 11 17 q12 30 24 59 q12 29 29 58 q72 115 186 179 q115 64 250 65 q98 0 187 -35 q90 -36 162 -102 l-138 -138 q-9 -9 -14 -21 q-5 -11 -5 -24 q1 -27 19 -45 q18 -18 45 -19 l448 0 q27 1 45 19 q18 18 19 45 l0 448 Z" /><glyph glyph-name="list_alt" unicode="&#xf022;" d="M384 352 q0 13 -10 22 q-9 10 -22 10 l-64 0 q-13 0 -22 -10 q-10 -9 -10 -22 l0 -64 q0 -13 10 -22 q9 -10 22 -10 l64 0 q13 0 22 10 q10 9 10 22 l0 64 ZM384 608 q0 13 -10 22 q-9 10 -22 10 l-64 0 q-13 0 -22 -10 q-10 -9 -10 -22 l0 -64 q0 -13 10 -22 q9 -10 22 -10 l64 0 q13 0 22 10 q10 9 10 22 l0 64 ZM384 864 q0 13 -10 22 q-9 10 -22 10 l-64 0 q-13 0 -22 -10 q-10 -9 -10 -22 l0 -64 q0 -13 10 -22 q9 -10 22 -10 l64 0 q13 0 22 10 q10 9 10 22 l0 64 ZM1536 352 q0 13 -10 22 q-9 10 -22 10 l-960 0 q-13 0 -22 -10 q-10 -9 -10 -22 l0 -64 q0 -13 10 -22 q9 -10 22 -10 l960 0 q13 0 22 10 q10 9 10 22 l0 64 ZM1536 608 q0 13 -10 22 q-9 10 -22 10 l-960 0 q-13 0 -22 -10 q-10 -9 -10 -22 l0 -64 q0 -13 10 -22 q9 -10 22 -10 l960 0 q13 0 22 10 q10 9 10 22 l0 64 ZM1536 864 q0 13 -10 22 q-9 10 -22 10 l-960 0 q-13 0 -22 -10 q-10 -9 -10 -22 l0 -64 q0 -13 10 -22 q9 -10 22 -10 l960 0 q13 0 22 10 q10 9 10 22 l0 64 ZM1664 160 q0 -13 -10 -22 q-9 -10 -22 -10 l-1472 0 q-13 0 -22 10 q-10 9 -10 22 l0 832 q0 13 10 22 q9 10 22 10 l1472 0 q13 0 22 -10 q10 -9 10 -22 l0 -832 ZM1792 1248 q-2 68 -47 113 q-45 45 -113 47 l-1472 0 q-68 -2 -113 -47 q-45 -45 -47 -113 l0 -1088 q2 -68 47 -113 q45 -45 113 -47 l1472 0 q68 2 113 47 q45 45 47 113 l0 1088 Z" /><glyph glyph-name="lock" unicode="&#xf023;" d="M320 768 l0 192 q3 109 75 181 q72 72 181 75 q109 -3 181 -75 q72 -72 75 -181 l0 -192 l-512 0 ZM1152 672 q-1 41 -28 68 q-27 27 -68 28 l-32 0 l0 192 q-5 189 -132 316 q-127 127 -316 132 q-189 -5 -316 -132 q-127 -127 -132 -316 l0 -192 l-32 0 q-41 -1 -68 -28 q-27 -27 -28 -68 l0 -576 q1 -41 28 -68 q27 -27 68 -28 l960 0 q41 1 68 28 q27 27 28 68 l0 576 Z" /><glyph glyph-name="flag" unicode="&#xf024;" d="M320 1280 q-1 55 -37 91 q-36 36 -91 37 q-55 -1 -91 -37 q-36 -36 -37 -91 q0 -35 17 -64 q17 -28 47 -46 l0 -1266 q0 -13 10 -22 q9 -10 22 -10 l64 0 q13 0 22 10 q10 9 10 22 l0 1266 q30 18 47 46 q17 29 17 64 l0 0 ZM1792 1216 q-1 27 -19 45 q-18 18 -45 19 q-37 -8 -143 -68 q-105 -59 -227 -68 q-23 0 -45 4 q-22 5 -43 15 q-103 50 -203 83 q-100 33 -216 34 q-108 -1 -216 -36 q-109 -34 -205 -84 q-20 -10 -40 -20 q-21 -11 -39 -23 q-14 -10 -23 -24 q-8 -13 -8 -31 l0 -742 q1 -27 19 -45 q18 -18 45 -19 q9 0 17 2 q8 3 16 7 q105 58 224 101 q120 43 240 45 q156 -9 258 -70 q101 -61 232 -70 q98 2 191 35 q93 34 178 81 q22 11 37 25 q14 14 15 41 l0 763 Z" /><glyph glyph-name="headphones" unicode="&#xf025;" d="M1664 650 q-10 317 -247 533 q-237 216 -585 225 q-348 -9 -585 -225 q-237 -216 -247 -533 q0 -82 15 -161 q15 -79 45 -153 l20 -49 l185 -33 q23 -83 90 -136 q66 -52 157 -54 l0 -32 q0 -14 9 -23 q9 -9 23 -9 l64 0 q14 0 23 9 q9 9 9 23 l0 576 q0 14 -9 23 q-9 9 -23 9 l-64 0 q-14 0 -23 -9 q-9 -9 -9 -23 l0 -32 q-73 -1 -131 -36 q-58 -36 -92 -95 l-68 12 q-29 93 -29 193 q8 234 192 396 q184 163 448 170 q264 -7 448 -170 q184 -162 192 -396 q0 -100 -29 -193 l-68 -12 q-34 59 -92 95 q-58 35 -131 36 l0 32 q0 14 -9 23 q-9 9 -23 9 l-64 0 q-14 0 -23 -9 q-9 -9 -9 -23 l0 -576 q0 -14 9 -23 q9 -9 23 -9 l64 0 q14 0 23 9 q9 9 9 23 l0 32 q91 2 157 54 q67 53 90 136 l185 33 l20 49 q30 74 45 153 q15 79 15 161 l0 0 Z" /><glyph glyph-name="volume_off" unicode="&#xf026;" d="M768 1184 q-1 27 -19 45 q-18 18 -45 19 q-13 0 -24 -5 q-12 -5 -21 -14 l-333 -333 l-262 0 q-27 -1 -45 -19 q-18 -18 -19 -45 l0 -384 q1 -27 19 -45 q18 -18 45 -19 l262 0 l333 -333 q9 -9 21 -14 q11 -5 24 -5 q27 1 45 19 q18 18 19 45 l0 1088 Z" /><glyph glyph-name="volume_down" unicode="&#xf027;" d="M768 1184 q-1 27 -19 45 q-18 18 -45 19 q-13 0 -24 -5 q-12 -5 -21 -14 l-333 -333 l-262 0 q-27 -1 -45 -19 q-18 -18 -19 -45 l0 -384 q1 -27 19 -45 q18 -18 45 -19 l262 0 l333 -333 q9 -9 21 -14 q11 -5 24 -5 q27 1 45 19 q18 18 19 45 l0 1088 ZM1152 640 q-1 77 -42 141 q-42 64 -113 94 q-6 3 -12 4 q-7 1 -13 1 q-27 -1 -45 -18 q-18 -18 -19 -46 q7 -50 58 -71 q51 -22 58 -105 q-7 -83 -58 -105 q-51 -21 -58 -71 q1 -28 19 -45 q18 -18 45 -19 q6 0 13 1 q6 1 12 4 q71 30 113 94 q41 64 42 141 l0 0 Z" /><glyph glyph-name="volume_up" unicode="&#xf028;" d="M768 1184 q-1 27 -19 45 q-18 18 -45 19 q-13 0 -24 -5 q-12 -5 -21 -14 l-333 -333 l-262 0 q-27 -1 -45 -19 q-18 -18 -19 -45 l0 -384 q1 -27 19 -45 q18 -18 45 -19 l262 0 l333 -333 q9 -9 21 -14 q11 -5 24 -5 q27 1 45 19 q18 18 19 45 l0 1088 ZM1152 640 q-1 77 -42 141 q-42 64 -113 94 q-6 3 -12 4 q-7 1 -13 1 q-27 -1 -45 -18 q-18 -18 -19 -46 q7 -50 58 -71 q51 -22 58 -105 q-7 -83 -58 -105 q-51 -21 -58 -71 q1 -28 19 -45 q18 -18 45 -19 q6 0 13 1 q6 1 12 4 q71 30 113 94 q41 64 42 141 l0 0 ZM1408 640 q-2 155 -84 282 q-83 127 -226 189 q-12 5 -26 5 q-27 -1 -45 -19 q-18 -18 -19 -45 q0 -21 11 -35 q10 -15 28 -24 q20 -10 39 -20 q19 -11 37 -24 q75 -55 116 -136 q40 -80 41 -173 q-1 -93 -41 -173 q-41 -81 -116 -136 q-18 -13 -37 -23 q-19 -11 -39 -21 q-18 -9 -28 -23 q-11 -15 -11 -36 q1 -27 19 -45 q18 -18 46 -19 q6 0 13 1 q6 2 12 4 q143 62 226 189 q82 127 84 282 l0 0 ZM1664 640 q-3 234 -127 423 q-124 188 -338 283 q-12 5 -26 5 q-27 -1 -45 -19 q-18 -18 -19 -45 q0 -21 11 -35 q10 -14 28 -24 q11 -6 22 -10 q12 -5 23 -11 q43 -22 82 -51 q124 -93 192 -227 q68 -134 69 -289 q-1 -155 -69 -289 q-68 -134 -192 -227 q-39 -28 -82 -51 q-11 -6 -23 -10 q-11 -5 -22 -11 q-18 -10 -28 -24 q-11 -14 -11 -35 q1 -27 19 -45 q18 -18 45 -19 q14 0 26 5 q214 95 338 283 q124 189 127 423 l0 0 Z" /><glyph glyph-name="qrcode" unicode="&#xf029;" d="M384 384 l-128 0 l0 -128 l128 0 l0 128 ZM384 1152 l-128 0 l0 -128 l128 0 l0 128 ZM1152 1152 l-128 0 l0 -128 l128 0 l0 128 ZM128 129 l0 383 l384 0 l0 -383 l-384 0 ZM128 896 l0 384 l384 0 l0 -384 l-384 0 ZM896 896 l0 384 l384 0 l0 -384 l-384 0 ZM640 640 l-640 0 l0 -640 l640 0 l0 640 ZM1152 128 l-128 0 l0 -128 l128 0 l0 128 ZM1408 128 l-128 0 l0 -128 l128 0 l0 128 ZM1408 640 l-128 0 l0 -128 l-128 0 l0 128 l-384 0 l0 -640 l128 0 l0 384 l128 0 l0 -128 l384 0 l0 384 ZM640 1408 l-640 0 l0 -640 l640 0 l0 640 ZM1408 1408 l-640 0 l0 -640 l640 0 l0 640 Z" /><glyph glyph-name="barcode" unicode="&#xf02a;" d="M63 0 q0 706 0 1408 q-31 0 -63 0 q0 -704 0 -1408 q16 0 31 0 q16 0 32 0 l0 0 ZM126 1 q0 705 0 1407 q-16 0 -32 0 q0 -703 0 -1407 q9 0 16 0 q8 0 16 0 l0 0 ZM220 1 q0 705 0 1407 q-15 0 -31 0 q0 -703 0 -1407 q16 0 31 0 l0 0 ZM377 1 q0 705 0 1407 q-15 0 -31 0 q0 -703 0 -1407 q9 0 16 0 q8 0 15 0 l0 0 ZM534 1 q0 705 0 1407 q-30 0 -62 0 q0 -703 0 -1407 q33 0 62 0 l0 0 ZM660 1 q0 705 0 1407 q-15 0 -31 0 q0 -703 0 -1407 q16 0 31 0 l0 0 ZM723 1 q0 705 0 1407 q-15 0 -31 0 q0 -703 0 -1407 q16 0 31 0 l0 0 ZM786 1 q0 705 0 1407 q-15 0 -31 0 q0 -703 0 -1407 q16 0 31 0 l0 0 ZM943 1 q0 705 0 1407 q-31 0 -63 0 q0 -703 0 -1407 q17 0 32 0 q15 0 31 0 l0 0 ZM1100 1 q0 705 0 1407 q-31 0 -63 0 q0 -703 0 -1407 q17 0 33 0 q15 0 30 0 l0 0 ZM1226 1 q0 705 0 1407 q-31 0 -63 0 q0 -703 0 -1407 q16 0 32 0 q15 0 31 0 l0 0 ZM1352 1 q0 705 0 1407 q-31 0 -63 0 q0 -703 0 -1407 q16 0 32 0 q15 0 31 0 l0 0 ZM1446 1 q0 705 0 1407 q-31 0 -63 0 q0 -703 0 -1407 q17 0 32 0 q15 0 31 0 l0 0 ZM1635 1 q0 705 0 1407 q-48 0 -94 0 q0 -703 0 -1407 q48 0 94 0 l0 0 ZM1698 1 q0 705 0 1407 q-16 0 -32 0 q0 -703 0 -1407 q9 0 16 0 q8 0 16 0 l0 0 ZM1792 0 q0 704 0 1408 q-31 0 -63 0 q0 -703 0 -1408 q17 0 33 0 q15 0 30 0 l0 0 Z" /><glyph glyph-name="tag" unicode="&#xf02b;" d="M448 1088 q-1 -55 -37 -91 q-36 -36 -91 -37 q-55 1 -91 37 q-36 36 -37 91 q1 55 37 91 q36 36 91 37 q55 -1 91 -37 q36 -36 37 -91 l0 0 ZM1515 512 q0 26 -10 49 q-10 24 -27 42 l-715 714 q-40 39 -102 65 q-61 25 -117 26 l-416 0 q-54 -1 -90 -38 q-37 -36 -38 -90 l0 -416 q1 -56 26 -117 q26 -61 65 -101 l715 -716 q18 -17 41 -27 q23 -10 49 -10 q26 0 49 10 q24 10 42 27 l491 492 q17 18 27 41 q10 23 10 49 l0 0 Z" /><glyph glyph-name="tags" unicode="&#xf02c;" d="M448 1088 q-1 -55 -37 -91 q-36 -36 -91 -37 q-55 1 -91 37 q-36 36 -37 91 q1 55 37 91 q36 36 91 37 q55 -1 91 -37 q36 -36 37 -91 l0 0 ZM1515 512 q0 26 -10 49 q-10 24 -27 42 l-715 714 q-40 39 -102 65 q-61 25 -117 26 l-416 0 q-54 -1 -90 -38 q-37 -36 -38 -90 l0 -416 q1 -56 26 -117 q26 -61 65 -101 l715 -716 q18 -17 41 -27 q23 -10 49 -10 q26 0 49 10 q24 10 42 27 l491 492 q17 18 27 41 q10 23 10 49 l0 0 ZM1899 512 q0 26 -10 49 q-10 24 -27 42 l-715 714 q-40 39 -102 65 q-61 25 -117 26 l-224 0 q56 -1 117 -26 q62 -26 102 -65 l715 -714 q17 -18 27 -42 q10 -23 10 -49 q0 -26 -10 -49 q-10 -23 -27 -41 l-470 -470 q24 -27 49 -43 q25 -16 63 -16 q26 0 49 10 q24 10 42 27 l491 492 q17 18 27 41 q10 23 10 49 l0 0 Z" /><glyph glyph-name="book" unicode="&#xf02d;" d="M1639 1058 q-11 15 -26 26 q-16 10 -33 17 q1 -14 0 -28 q-1 -15 -5 -29 l-300 -987 q-9 -27 -36 -42 q-26 -15 -55 -15 l-923 0 q-43 -1 -85 13 q-42 15 -59 57 q-6 16 -5 25 q0 10 6 18 q7 9 18 12 q10 3 20 3 l869 0 q91 -3 130 36 q39 39 70 152 l274 906 q11 36 6 69 q-4 34 -24 61 q-19 26 -49 41 q-29 15 -65 15 l-761 0 q-13 0 -25 -3 q-13 -3 -26 -6 l1 3 q-90 19 -120 -45 q-30 -64 -57 -118 q-13 -17 -26 -32 q-14 -16 -18 -30 q-1 -13 2 -26 q4 -13 3 -26 q-6 -43 -28 -98 q-22 -55 -42 -83 q-12 -14 -25 -25 q-13 -11 -19 -28 q-4 -12 0 -28 q3 -16 2 -32 q-5 -38 -25 -91 q-21 -54 -42 -91 q-8 -13 -19 -25 q-11 -12 -15 -26 q-3 -13 0 -28 q3 -15 0 -30 q-9 -41 -30 -92 q-22 -52 -45 -91 q-13 -20 -25 -35 q-12 -16 -16 -33 q-1 -9 3 -19 q3 -10 3 -22 q-1 -18 -3 -33 q-2 -16 -4 -31 q-11 -29 -10 -61 q0 -32 12 -66 q30 -80 100 -131 q69 -52 148 -54 l923 0 q67 1 122 44 q56 42 77 107 l275 906 q10 35 6 68 q-5 34 -24 61 l0 0 ZM575 1056 l21 64 q5 14 17 23 q12 9 25 9 l608 0 q14 0 20 -9 q6 -9 2 -23 l-21 -64 q-5 -14 -17 -23 q-12 -9 -25 -9 l-608 0 q-14 0 -20 9 q-6 9 -2 23 l0 0 ZM492 800 l21 64 q5 14 17 23 q12 9 25 9 l608 0 q14 0 20 -9 q6 -9 2 -23 l-21 -64 q-5 -14 -17 -23 q-12 -9 -25 -9 l-608 0 q-14 0 -20 9 q-6 9 -2 23 l0 0 Z" /><glyph glyph-name="bookmark" unicode="&#xf02e;" d="M1164 1408 q-83 0 -524 0 q-441 0 -524 0 q-23 0 -44 -9 q-33 -13 -52 -41 q-20 -28 -20 -62 l0 -1289 q0 -34 20 -62 q19 -28 52 -41 q21 -9 44 -9 q23 0 45 9 q21 8 38 24 l441 424 l441 -424 q17 -16 39 -24 q21 -8 44 -8 q11 0 22 2 q11 2 22 6 q33 13 53 41 q19 28 19 62 l0 1289 q0 34 -19 62 q-20 28 -53 41 q-21 9 -44 9 l0 0 Z" /><glyph glyph-name="print" unicode="&#xf02f;" d="M384 0 l0 256 l896 0 l0 -256 l-896 0 ZM384 640 l0 640 l640 0 l0 -160 q1 -41 28 -68 q27 -27 68 -28 l160 0 l0 -384 l-896 0 ZM1536 576 q-1 -27 -19 -45 q-18 -18 -45 -19 q-27 1 -45 19 q-18 18 -19 45 q1 27 19 45 q18 18 45 19 q27 -1 45 -19 q18 -18 19 -45 l0 0 ZM1664 576 q-2 81 -57 135 q-54 55 -135 57 l-64 0 l0 256 q-1 41 -20 88 q-19 46 -48 76 l-152 152 q-30 29 -76 48 q-47 19 -88 20 l-672 0 q-41 -1 -68 -28 q-27 -27 -28 -68 l0 -544 l-64 0 q-81 -2 -135 -57 q-55 -54 -57 -135 l0 -416 q0 -13 10 -22 q9 -10 22 -10 l224 0 l0 -160 q1 -41 28 -68 q27 -27 68 -28 l960 0 q41 1 68 28 q27 27 28 68 l0 160 l224 0 q13 0 22 10 q10 9 10 22 l0 416 Z" /><glyph glyph-name="camera" unicode="&#xf030;" d="M960 864 q-122 -3 -204 -84 q-81 -82 -84 -204 q3 -122 84 -204 q82 -81 204 -84 q122 3 204 84 q81 82 84 204 q-3 122 -84 204 q-82 81 -204 84 l0 0 ZM1664 1280 l-224 0 l-51 136 q-21 51 -70 85 q-49 34 -103 35 l-512 0 q-54 -1 -103 -35 q-49 -34 -70 -85 l-51 -136 l-224 0 q-109 -3 -181 -75 q-72 -72 -75 -181 l0 -896 q3 -109 75 -181 q72 -72 181 -75 l1408 0 q109 3 181 75 q72 72 75 181 l0 896 q-3 109 -75 181 q-72 72 -181 75 l0 0 ZM960 128 q-190 5 -317 131 q-126 127 -131 317 q5 190 131 317 q127 126 317 131 q190 -5 317 -131 q126 -127 131 -317 q-5 -190 -131 -317 q-127 -126 -317 -131 l0 0 Z" /><glyph glyph-name="font" unicode="&#xf031;" d="M725 977 q53 -109 99 -223 q46 -115 85 -229 q-28 -2 -57 -2 q-74 0 -148 2 q-75 1 -149 2 l170 450 ZM0 -128 q47 0 94 3 q47 3 94 11 q11 2 24 5 q13 3 24 3 q87 -1 175 -10 q87 -9 174 -10 q2 14 2 27 q0 30 -1 58 q-50 4 -123 18 q-74 15 -81 70 q6 42 54 172 q48 129 73 186 l450 -2 q20 -47 79 -189 q58 -142 66 -185 q-2 -27 -30 -37 q-27 -9 -50 -13 l-131 -28 q-4 -39 -4 -78 q98 4 197 9 q98 5 196 6 q95 -1 191 -8 q95 -7 190 -8 q0 7 1 13 q0 6 0 13 q0 14 -2 29 q-2 14 -4 28 q-38 13 -91 22 q-53 10 -81 28 q-11 9 -20 27 q-10 17 -15 30 q-37 77 -67 156 q-30 79 -63 157 q-57 132 -110 266 q-54 133 -110 266 l-205 480 q-5 11 -11 21 l-53 0 l-75 0 l-280 -724 l-237 -616 q-34 -75 -99 -88 q-66 -13 -139 -29 l-2 -79 Z" /><glyph glyph-name="bold" unicode="&#xf032;" d="M555 15 q-17 51 -16 153 q0 102 1 161 q0 79 1 158 q0 79 0 159 q22 7 50 9 q28 1 51 1 q121 4 220 -23 q98 -27 168 -135 q24 -40 33 -87 q9 -46 8 -93 q-2 -181 -102 -259 q-101 -78 -274 -76 q-36 0 -71 9 q-36 9 -69 23 l0 0 ZM541 761 q-1 35 -1 69 q1 80 1 159 q0 76 -4 152 q-3 75 -4 151 q32 5 65 9 q32 4 65 4 q131 2 233 -58 q101 -60 107 -204 q-3 -170 -99 -231 q-97 -62 -254 -58 q-27 0 -54 1 q-28 2 -55 6 l0 0 ZM0 -128 q134 6 269 14 q135 8 269 9 q66 0 132 -3 q66 -3 132 -3 q230 -4 413 100 q183 104 193 358 q-5 158 -108 254 q-104 96 -251 128 q110 45 191 112 q82 67 86 198 q-8 194 -153 282 q-144 87 -322 86 q-34 0 -68 1 q-34 0 -68 0 q-178 -1 -356 -9 q-178 -8 -357 -12 l4 -83 q32 -2 104 -11 q72 -8 91 -29 q17 -93 20 -522 q3 -429 2 -503 q1 -53 -2 -118 q-3 -65 -28 -112 q-47 -18 -95 -25 q-48 -7 -96 -18 l-2 -94 Z" /><glyph glyph-name="italic" unicode="&#xf033;" d="M0 -126 q66 5 132 12 q65 7 132 8 q102 0 206 -2 q43 -2 87 -10 q43 -9 86 -10 q16 0 33 2 q16 1 32 1 q13 50 16 99 q-47 7 -93 14 q-46 7 -92 17 l-1 18 q0 41 22 142 q23 101 33 147 q41 193 84 387 q44 194 81 388 q7 43 14 86 q7 43 23 84 q51 19 105 32 q53 13 105 30 q6 22 11 44 q5 22 8 45 q-79 -5 -159 -10 q-79 -6 -159 -6 q-98 0 -195 6 q-98 5 -195 10 l-19 -103 q46 -6 93 -8 q47 -3 89 -24 l0 -25 q-11 -117 -108 -569 q-97 -452 -120 -560 q-5 -27 -14 -53 q-10 -26 -27 -48 q-45 -22 -95 -34 q-50 -11 -98 -25 l-17 -85 Z" /><glyph glyph-name="text_height" unicode="&#xf034;" d="M1744 128 l-80 0 l0 1024 l80 0 q33 1 42 18 q9 18 -11 45 l-126 162 q-21 26 -49 26 q-28 0 -49 -26 l-126 -162 q-20 -27 -11 -45 q9 -17 42 -18 l80 0 l0 -1024 l-80 0 q-33 -1 -42 -18 q-9 -18 11 -45 l126 -162 q21 -26 49 -26 q28 0 49 26 l126 162 q20 27 11 45 q-9 17 -42 18 l0 0 ZM81 1407 l-81 -1 l0 -383 q10 -13 26 -24 q16 -12 30 -20 q42 14 59 108 q16 93 49 129 q26 16 84 27 q57 11 89 11 q20 1 82 0 q62 -1 80 -12 q8 -14 9 -50 q0 -37 -1 -54 l0 -117 q0 -151 3 -303 q3 -151 3 -303 q1 -61 -1 -197 q-2 -136 -18 -186 q-53 -25 -128 -40 q-76 -16 -110 -59 l0 -9 q0 -13 1 -26 q1 -13 2 -26 q76 1 152 9 q75 8 151 9 q107 -1 213 -10 q106 -9 212 -8 l34 1 q3 15 3 29 q0 13 -2 25 q-1 13 -3 25 q-59 24 -123 39 q-63 14 -121 41 q-15 56 -13 115 q2 59 3 117 q0 211 -2 422 q-1 210 -2 421 q-1 34 2 68 q2 35 6 68 q68 8 138 8 q69 0 138 -1 q23 1 41 -1 q18 -2 34 -20 q3 -9 15 -72 q12 -62 18 -85 q11 -33 24 -65 q13 -33 30 -63 q17 2 34 7 q17 5 34 11 q4 27 5 55 q0 28 0 54 q1 168 -2 336 q-7 0 -14 1 q-7 0 -14 0 l-42 -1 q-20 -27 -40 -29 q-21 -2 -50 0 l-293 0 q-54 0 -107 1 q-54 0 -108 0 q-66 0 -132 -2 q-66 -2 -132 -2 q-26 0 -111 1 q-84 2 -100 4 l-54 27 Z" /><glyph glyph-name="text_width" unicode="&#xf035;" d="M81 1407 l-81 -1 l0 -383 q10 -13 26 -24 q16 -12 30 -20 q42 15 59 109 q17 93 49 128 q31 13 144 25 q113 12 157 13 q20 1 82 0 q62 -1 80 -12 q10 -26 10 -137 q-1 -112 -2 -156 q0 -11 3 -22 q2 -11 2 -22 q1 -91 0 -320 q0 -230 -18 -297 q-53 -25 -128 -40 q-76 -16 -110 -59 l0 -9 q0 -13 1 -26 q1 -13 2 -26 q76 1 152 9 q75 8 151 9 q107 -1 213 -10 q106 -9 212 -8 l34 1 q3 15 3 29 q0 13 -2 25 q-1 13 -3 25 q-59 24 -123 39 q-63 14 -121 41 q-15 56 -13 115 q2 59 3 117 q0 121 -1 243 q-1 122 -2 244 l0 -52 l-1 152 q-1 34 2 68 q2 35 6 68 q92 10 192 9 q101 -1 194 -2 q10 0 34 0 q24 0 32 -2 q17 -6 27 -19 q2 -9 14 -72 q12 -62 19 -85 q11 -33 24 -65 q13 -33 30 -63 q17 2 34 7 q17 5 34 11 q4 26 5 54 q0 28 0 55 q1 168 -2 336 q-7 0 -14 1 q-7 0 -14 0 l-42 -1 q-10 -14 -25 -23 q-14 -8 -31 -8 q-199 6 -399 5 q-200 -1 -399 -2 q-66 0 -132 -2 q-66 -2 -132 -2 q-26 0 -111 1 q-84 2 -100 4 l-54 27 ZM1310 125 q-32 -6 -32 -56 q0 -49 2 -69 l-1024 0 q2 20 2 69 q0 50 -32 56 q-33 -7 -100 -62 q-68 -55 -95 -78 q-11 -9 -19 -21 q-7 -13 -7 -28 q0 -15 7 -27 q8 -13 19 -22 q27 -23 95 -78 q67 -55 100 -62 q32 6 32 56 q0 49 -2 69 l1024 0 q-2 -20 -2 -69 q0 -50 32 -56 q33 7 101 62 q67 55 94 78 q11 9 19 22 q7 12 7 27 q0 15 -7 28 q-8 12 -19 21 q-27 23 -94 78 q-68 55 -101 62 l0 0 Z" /><glyph glyph-name="align_left" unicode="&#xf036;" d="M1792 192 q-1 27 -19 45 q-18 18 -45 19 l-1664 0 q-27 -1 -45 -19 q-18 -18 -19 -45 l0 -128 q1 -27 19 -45 q18 -18 45 -19 l1664 0 q27 1 45 19 q18 18 19 45 l0 128 ZM1408 576 q-1 27 -19 45 q-18 18 -45 19 l-1280 0 q-27 -1 -45 -19 q-18 -18 -19 -45 l0 -128 q1 -27 19 -45 q18 -18 45 -19 l1280 0 q27 1 45 19 q18 18 19 45 l0 128 ZM1664 960 q-1 27 -19 45 q-18 18 -45 19 l-1536 0 q-27 -1 -45 -19 q-18 -18 -19 -45 l0 -128 q1 -27 19 -45 q18 -18 45 -19 l1536 0 q27 1 45 19 q18 18 19 45 l0 128 ZM1280 1344 q-1 27 -19 45 q-18 18 -45 19 l-1152 0 q-27 -1 -45 -19 q-18 -18 -19 -45 l0 -128 q1 -27 19 -45 q18 -18 45 -19 l1152 0 q27 1 45 19 q18 18 19 45 l0 128 Z" /><glyph glyph-name="align_center" unicode="&#xf037;" d="M1792 192 q-1 27 -19 45 q-18 18 -45 19 l-1664 0 q-27 -1 -45 -19 q-18 -18 -19 -45 l0 -128 q1 -27 19 -45 q18 -18 45 -19 l1664 0 q27 1 45 19 q18 18 19 45 l0 128 ZM1408 576 q-1 27 -19 45 q-18 18 -45 19 l-896 0 q-27 -1 -45 -19 q-18 -18 -19 -45 l0 -128 q1 -27 19 -45 q18 -18 45 -19 l896 0 q27 1 45 19 q18 18 19 45 l0 128 ZM1664 960 q-1 27 -19 45 q-18 18 -45 19 l-1408 0 q-27 -1 -45 -19 q-18 -18 -19 -45 l0 -128 q1 -27 19 -45 q18 -18 45 -19 l1408 0 q27 1 45 19 q18 18 19 45 l0 128 ZM1280 1344 q-1 27 -19 45 q-18 18 -45 19 l-640 0 q-27 -1 -45 -19 q-18 -18 -19 -45 l0 -128 q1 -27 19 -45 q18 -18 45 -19 l640 0 q27 1 45 19 q18 18 19 45 l0 128 Z" /><glyph glyph-name="align_right" unicode="&#xf038;" d="M1792 192 q-1 27 -19 45 q-18 18 -45 19 l-1664 0 q-27 -1 -45 -19 q-18 -18 -19 -45 l0 -128 q1 -27 19 -45 q18 -18 45 -19 l1664 0 q27 1 45 19 q18 18 19 45 l0 128 ZM1792 576 q-1 27 -19 45 q-18 18 -45 19 l-1280 0 q-27 -1 -45 -19 q-18 -18 -19 -45 l0 -128 q1 -27 19 -45 q18 -18 45 -19 l1280 0 q27 1 45 19 q18 18 19 45 l0 128 ZM1792 960 q-1 27 -19 45 q-18 18 -45 19 l-1536 0 q-27 -1 -45 -19 q-18 -18 -19 -45 l0 -128 q1 -27 19 -45 q18 -18 45 -19 l1536 0 q27 1 45 19 q18 18 19 45 l0 128 ZM1792 1344 q-1 27 -19 45 q-18 18 -45 19 l-1152 0 q-27 -1 -45 -19 q-18 -18 -19 -45 l0 -128 q1 -27 19 -45 q18 -18 45 -19 l1152 0 q27 1 45 19 q18 18 19 45 l0 128 Z" /><glyph glyph-name="align_justify" unicode="&#xf039;" d="M1792 192 q-1 27 -19 45 q-18 18 -45 19 l-1664 0 q-27 -1 -45 -19 q-18 -18 -19 -45 l0 -128 q1 -27 19 -45 q18 -18 45 -19 l1664 0 q27 1 45 19 q18 18 19 45 l0 128 ZM1792 576 q-1 27 -19 45 q-18 18 -45 19 l-1664 0 q-27 -1 -45 -19 q-18 -18 -19 -45 l0 -128 q1 -27 19 -45 q18 -18 45 -19 l1664 0 q27 1 45 19 q18 18 19 45 l0 128 ZM1792 960 q-1 27 -19 45 q-18 18 -45 19 l-1664 0 q-27 -1 -45 -19 q-18 -18 -19 -45 l0 -128 q1 -27 19 -45 q18 -18 45 -19 l1664 0 q27 1 45 19 q18 18 19 45 l0 128 ZM1792 1344 q-1 27 -19 45 q-18 18 -45 19 l-1664 0 q-27 -1 -45 -19 q-18 -18 -19 -45 l0 -128 q1 -27 19 -45 q18 -18 45 -19 l1664 0 q27 1 45 19 q18 18 19 45 l0 128 Z" /><glyph glyph-name="list" unicode="&#xf03a;" d="M256 224 q0 13 -10 22 q-9 10 -22 10 l-192 0 q-13 0 -22 -10 q-10 -9 -10 -22 l0 -192 q0 -13 10 -22 q9 -10 22 -10 l192 0 q13 0 22 10 q10 9 10 22 l0 192 ZM256 608 q0 13 -10 22 q-9 10 -22 10 l-192 0 q-13 0 -22 -10 q-10 -9 -10 -22 l0 -192 q0 -13 10 -22 q9 -10 22 -10 l192 0 q13 0 22 10 q10 9 10 22 l0 192 ZM256 992 q0 13 -10 22 q-9 10 -22 10 l-192 0 q-13 0 -22 -10 q-10 -9 -10 -22 l0 -192 q0 -13 10 -22 q9 -10 22 -10 l192 0 q13 0 22 10 q10 9 10 22 l0 192 ZM1792 224 q0 13 -10 22 q-9 10 -22 10 l-1344 0 q-13 0 -22 -10 q-10 -9 -10 -22 l0 -192 q0 -13 10 -22 q9 -10 22 -10 l1344 0 q13 0 22 10 q10 9 10 22 l0 192 ZM256 1376 q0 13 -10 22 q-9 10 -22 10 l-192 0 q-13 0 -22 -10 q-10 -9 -10 -22 l0 -192 q0 -13 10 -22 q9 -10 22 -10 l192 0 q13 0 22 10 q10 9 10 22 l0 192 ZM1792 608 q0 13 -10 22 q-9 10 -22 10 l-1344 0 q-13 0 -22 -10 q-10 -9 -10 -22 l0 -192 q0 -13 10 -22 q9 -10 22 -10 l1344 0 q13 0 22 10 q10 9 10 22 l0 192 ZM1792 992 q0 13 -10 22 q-9 10 -22 10 l-1344 0 q-13 0 -22 -10 q-10 -9 -10 -22 l0 -192 q0 -13 10 -22 q9 -10 22 -10 l1344 0 q13 0 22 10 q10 9 10 22 l0 192 ZM1792 1376 q0 13 -10 22 q-9 10 -22 10 l-1344 0 q-13 0 -22 -10 q-10 -9 -10 -22 l0 -192 q0 -13 10 -22 q9 -10 22 -10 l1344 0 q13 0 22 10 q10 9 10 22 l0 192 Z" /><glyph glyph-name="indent_left" unicode="&#xf03b;" d="M384 992 q0 13 -10 22 q-9 10 -22 10 q-6 0 -12 -2 q-6 -2 -11 -7 l-288 -288 q-4 -5 -7 -11 q-2 -6 -2 -12 q0 -6 2 -12 q3 -6 7 -11 l288 -288 q5 -4 11 -7 q6 -2 12 -2 q13 0 22 10 q10 9 10 22 l0 576 ZM1792 224 q0 13 -10 22 q-9 10 -22 10 l-1728 0 q-13 0 -22 -10 q-10 -9 -10 -22 l0 -192 q0 -13 10 -22 q9 -10 22 -10 l1728 0 q13 0 22 10 q10 9 10 22 l0 192 ZM1792 608 q0 13 -10 22 q-9 10 -22 10 l-1088 0 q-13 0 -22 -10 q-10 -9 -10 -22 l0 -192 q0 -13 10 -22 q9 -10 22 -10 l1088 0 q13 0 22 10 q10 9 10 22 l0 192 ZM1792 992 q0 13 -10 22 q-9 10 -22 10 l-1088 0 q-13 0 -22 -10 q-10 -9 -10 -22 l0 -192 q0 -13 10 -22 q9 -10 22 -10 l1088 0 q13 0 22 10 q10 9 10 22 l0 192 ZM1792 1376 q0 13 -10 22 q-9 10 -22 10 l-1728 0 q-13 0 -22 -10 q-10 -9 -10 -22 l0 -192 q0 -13 10 -22 q9 -10 22 -10 l1728 0 q13 0 22 10 q10 9 10 22 l0 192 Z" /><glyph glyph-name="indent_right" unicode="&#xf03c;" d="M352 704 q0 6 -2 12 q-2 6 -7 11 l-288 288 q-5 5 -11 7 q-6 2 -12 2 q-13 0 -22 -10 q-10 -9 -10 -22 l0 -576 q0 -13 10 -22 q9 -10 22 -10 q6 0 12 2 q6 3 11 7 l288 288 q5 5 7 11 q2 6 2 12 l0 0 ZM1792 224 q0 13 -10 22 q-9 10 -22 10 l-1728 0 q-13 0 -22 -10 q-10 -9 -10 -22 l0 -192 q0 -13 10 -22 q9 -10 22 -10 l1728 0 q13 0 22 10 q10 9 10 22 l0 192 ZM1792 608 q0 13 -10 22 q-9 10 -22 10 l-1088 0 q-13 0 -22 -10 q-10 -9 -10 -22 l0 -192 q0 -13 10 -22 q9 -10 22 -10 l1088 0 q13 0 22 10 q10 9 10 22 l0 192 ZM1792 992 q0 13 -10 22 q-9 10 -22 10 l-1088 0 q-13 0 -22 -10 q-10 -9 -10 -22 l0 -192 q0 -13 10 -22 q9 -10 22 -10 l1088 0 q13 0 22 10 q10 9 10 22 l0 192 ZM1792 1376 q0 13 -10 22 q-9 10 -22 10 l-1728 0 q-13 0 -22 -10 q-10 -9 -10 -22 l0 -192 q0 -13 10 -22 q9 -10 22 -10 l1728 0 q13 0 22 10 q10 9 10 22 l0 192 Z" /><glyph glyph-name="facetime_video" unicode="&#xf03d;" d="M1792 1184 q0 20 -11 36 q-10 15 -28 23 q-6 2 -12 4 q-7 1 -13 1 q-13 0 -24 -5 q-12 -4 -21 -14 l-403 -402 l0 165 q-3 122 -84 204 q-82 81 -204 84 l-704 0 q-122 -3 -204 -84 q-81 -82 -84 -204 l0 -704 q3 -122 84 -204 q82 -81 204 -84 l704 0 q122 3 204 84 q81 82 84 204 l0 166 l403 -403 q9 -10 21 -14 q11 -5 24 -5 q6 0 13 1 q6 2 12 4 q18 8 28 24 q11 15 11 35 l0 1088 Z" /><glyph glyph-name="picture" unicode="&#xf03e;" d="M640 960 q-2 82 -56 136 q-54 54 -136 56 q-82 -2 -136 -56 q-54 -54 -56 -136 q2 -82 56 -136 q54 -54 136 -56 q82 2 136 56 q54 54 56 136 l0 0 ZM1664 576 l-416 416 l-512 -512 l-160 160 l-320 -320 l0 -192 l1408 0 l0 448 ZM1760 1280 q13 0 22 -10 q10 -9 10 -22 l0 -1216 q0 -13 -10 -22 q-9 -10 -22 -10 l-1600 0 q-13 0 -22 10 q-10 9 -10 22 l0 1216 q0 13 10 22 q9 10 22 10 l1600 0 ZM1920 1248 q-2 68 -47 113 q-45 45 -113 47 l0 0 l-1600 0 q-68 -2 -113 -47 q-45 -45 -47 -113 l0 -1216 q2 -68 47 -113 q45 -45 113 -47 l1600 0 q68 2 113 47 q45 45 47 113 l0 1216 Z" /><glyph glyph-name="pencil" unicode="&#xf040;" d="M363 0 l-107 0 l0 128 l-128 0 l0 107 l91 91 l235 -235 l-91 -91 ZM886 928 q0 -9 -7 -17 l-542 -542 q-8 -7 -17 -7 q-10 0 -16 6 q-6 6 -6 16 q0 9 7 17 l542 542 q8 7 17 7 q10 0 16 -6 q6 -6 6 -16 l0 0 ZM832 1120 l-832 -832 l0 -416 l416 0 l832 832 l-416 416 ZM1515 1024 q0 26 -10 49 q-10 24 -27 42 l-235 234 q-18 18 -42 28 q-23 10 -49 10 q-26 0 -49 -10 q-23 -10 -41 -28 l-166 -165 l416 -416 l166 166 q17 18 27 41 q10 23 10 49 l0 0 Z" /><glyph glyph-name="map_marker" unicode="&#xf041;" d="M768 896 q-3 -109 -75 -181 q-72 -72 -181 -75 q-109 3 -181 75 q-72 72 -75 181 q3 109 75 181 q72 72 181 75 q109 -3 181 -75 q72 -72 75 -181 l0 0 ZM1024 896 q-5 218 -150 362 q-144 145 -362 150 q-218 -5 -362 -150 q-145 -144 -150 -362 q0 -46 7 -92 q7 -45 26 -87 l365 -774 q16 -33 47 -52 q30 -19 67 -19 q37 0 68 19 q31 19 47 52 l364 774 q19 42 26 87 q7 46 7 92 l0 0 Z" /><glyph glyph-name="adjust" unicode="&#xf042;" d="M768 96 q-231 6 -384 160 q-154 153 -160 384 q6 231 160 385 q153 153 384 159 l0 -1088 ZM1536 640 q-8 326 -225 543 q-217 217 -543 225 q-326 -8 -543 -225 q-217 -217 -225 -543 q8 -326 225 -543 q217 -217 543 -225 q326 8 543 225 q217 217 225 543 l0 0 Z" /><glyph glyph-name="tint" unicode="&#xf043;" d="M512 384 q-1 -55 -37 -91 q-36 -36 -91 -37 q-55 1 -91 37 q-36 36 -37 91 q0 19 6 36 q5 18 14 33 q12 17 41 60 q28 43 46 95 q3 8 9 12 q6 4 12 4 q6 0 12 -4 q6 -4 9 -12 q18 -52 47 -95 q28 -43 40 -60 q9 -15 15 -33 q5 -17 5 -36 l0 0 ZM1024 512 q0 76 -21 145 q-21 70 -60 130 q-47 66 -162 239 q-114 174 -184 382 q-10 32 -35 48 q-25 16 -50 16 q-25 0 -50 -16 q-24 -16 -35 -48 q-70 -208 -184 -382 q-114 -173 -162 -239 q-38 -60 -59 -130 q-22 -69 -22 -145 q5 -218 150 -362 q144 -145 362 -150 q218 5 362 150 q145 144 150 362 l0 0 Z" /><glyph glyph-name="edit" unicode="&#xf044;" d="M888 352 l-56 0 l0 96 l-96 0 l0 56 l116 116 l152 -152 l-116 -116 ZM1328 1072 q7 -7 6 -16 q0 -10 -7 -17 l-350 -350 q-7 -7 -16 -7 q-10 -1 -17 6 q-7 7 -6 17 q0 9 7 16 l350 350 q7 7 17 7 q9 1 16 -6 l0 0 ZM1408 478 q0 10 -5 18 q-6 7 -15 11 q-9 4 -18 2 q-9 -2 -17 -9 l-64 -64 q-9 -9 -9 -22 l0 -126 q-2 -68 -47 -113 q-45 -45 -113 -47 l-832 0 q-68 2 -113 47 q-45 45 -47 113 l0 832 q2 68 47 113 q45 45 113 47 l832 0 q23 0 45 -6 q8 -3 17 -1 q8 2 15 9 l49 49 q12 12 9 29 q-2 8 -6 14 q-5 6 -12 9 q-28 13 -57 19 q-30 6 -60 6 l-832 0 q-122 -3 -204 -84 q-81 -82 -84 -204 l0 -832 q3 -122 84 -204 q82 -81 204 -84 l832 0 q122 3 204 84 q81 82 84 204 l0 190 ZM1312 1216 l-672 -672 l0 -288 l288 0 l672 672 l-288 288 ZM1756 1084 q28 29 28 68 q0 39 -28 68 l-152 152 q-29 28 -68 28 q-39 0 -68 -28 l-92 -92 l288 -288 l92 92 Z" /><glyph glyph-name="share" unicode="&#xf045;" d="M1408 547 q0 10 -6 18 q-6 7 -15 11 q-9 4 -19 1 q-9 -2 -16 -9 q-24 -23 -54 -37 q-8 -5 -13 -12 q-5 -8 -5 -17 l0 -214 q-2 -68 -47 -113 q-45 -45 -113 -47 l-832 0 q-68 2 -113 47 q-45 45 -47 113 l0 832 q2 68 47 113 q45 45 113 47 l112 0 q4 0 8 1 q4 1 8 3 q58 35 133 60 q11 2 19 11 q7 9 7 21 q0 14 -10 23 q-9 9 -22 9 q0 0 0 0 q0 0 0 0 l-255 0 q-122 -3 -204 -84 q-81 -82 -84 -204 l0 -832 q3 -122 84 -204 q82 -81 204 -84 l832 0 q122 3 204 84 q81 82 84 204 l0 259 ZM1645 1043 q19 20 19 45 q0 25 -19 45 l-384 384 q-9 9 -21 14 q-11 5 -24 5 q-6 0 -12 -1 q-7 -2 -13 -4 q-18 -8 -28 -23 q-11 -16 -11 -36 l0 -192 l-160 0 q-474 -11 -612 -187 q-139 -177 -124 -389 q10 -157 80 -289 q71 -131 86 -146 q5 -6 12 -9 q6 -4 14 -4 q6 0 12 2 q10 5 16 14 q5 9 4 20 q-23 172 -5 288 q18 116 79 185 q58 67 166 99 q108 32 272 32 l160 0 l0 -192 q0 -20 11 -35 q10 -16 28 -24 q6 -2 13 -4 q6 -1 12 -1 q13 0 24 5 q12 4 21 14 l384 384 Z" /><glyph glyph-name="check" unicode="&#xf046;" d="M1408 606 q0 10 -5 18 q-6 7 -15 11 q-6 3 -12 3 q-12 0 -23 -10 l-64 -64 q-9 -9 -9 -22 l0 -254 q-2 -68 -47 -113 q-45 -45 -113 -47 l-832 0 q-68 2 -113 47 q-45 45 -47 113 l0 832 q2 68 47 113 q45 45 113 47 l832 0 q23 0 45 -6 q5 -2 9 -2 q6 0 12 3 q6 2 11 7 l49 49 q12 12 9 29 q-2 8 -6 14 q-5 6 -12 9 q-28 13 -57 19 q-30 6 -60 6 l-832 0 q-122 -3 -204 -84 q-81 -82 -84 -204 l0 -832 q3 -122 84 -204 q82 -81 204 -84 l832 0 q122 3 204 84 q81 82 84 204 l0 318 ZM1639 1095 q24 25 24 57 q0 32 -24 57 l-110 110 q-25 24 -57 24 q-32 0 -57 -24 l-647 -647 l-263 263 q-25 24 -57 24 q-32 0 -57 -24 l-110 -110 q-24 -25 -24 -57 q0 -32 24 -57 l430 -430 q25 -24 57 -24 q32 0 57 24 l814 814 Z" /><glyph glyph-name="move" unicode="&#xf047;" d="M1792 640 q0 13 -5 24 q-5 12 -14 21 l-256 256 q-9 9 -21 14 q-11 5 -24 5 q-27 -1 -45 -19 q-18 -18 -19 -45 l0 -128 l-384 0 l0 384 l128 0 q27 1 45 19 q18 18 19 45 q0 13 -5 24 q-5 12 -14 21 l-256 256 q-9 9 -21 14 q-11 5 -24 5 q-13 0 -24 -5 q-12 -5 -21 -14 l-256 -256 q-9 -9 -14 -21 q-5 -11 -5 -24 q1 -27 19 -45 q18 -18 45 -19 l128 0 l0 -384 l-384 0 l0 128 q-1 27 -19 45 q-18 18 -45 19 q-13 0 -24 -5 q-12 -5 -21 -14 l-256 -256 q-9 -9 -14 -21 q-5 -11 -5 -24 q0 -13 5 -24 q5 -12 14 -21 l256 -256 q9 -9 21 -14 q11 -5 24 -5 q27 1 45 19 q18 18 19 45 l0 128 l384 0 l0 -384 l-128 0 q-27 -1 -45 -19 q-18 -18 -19 -45 q0 -13 5 -24 q5 -12 14 -21 l256 -256 q9 -9 21 -14 q11 -5 24 -5 q13 0 24 5 q12 5 21 14 l256 256 q9 9 14 21 q5 11 5 24 q-1 27 -19 45 q-18 18 -45 19 l-128 0 l0 384 l384 0 l0 -128 q1 -27 19 -45 q18 -18 45 -19 q13 0 24 5 q12 5 21 14 l256 256 q9 9 14 21 q5 11 5 24 l0 0 Z" /><glyph glyph-name="step_backward" unicode="&#xf048;" d="M979 1395 l-710 -710 q-9 -9 -13 -19 l0 678 q-1 27 -19 45 q-18 18 -45 19 l-128 0 q-27 -1 -45 -19 q-18 -18 -19 -45 l0 -1408 q1 -27 19 -45 q18 -18 45 -19 l128 0 q27 1 45 19 q18 18 19 45 l0 678 q4 -10 13 -19 l710 -710 q19 -18 32 -13 q13 6 13 32 l0 1472 q0 27 -13 32 q-13 6 -32 -13 l0 0 Z" /><glyph glyph-name="fast_backward" unicode="&#xf049;" d="M1747 1395 l-710 -710 q-9 -9 -13 -19 l0 710 q0 27 -13 32 q-13 6 -32 -13 l-710 -710 q-9 -9 -13 -19 l0 678 q-1 27 -19 45 q-18 18 -45 19 l-128 0 q-27 -1 -45 -19 q-18 -18 -19 -45 l0 -1408 q1 -27 19 -45 q18 -18 45 -19 l128 0 q27 1 45 19 q18 18 19 45 l0 678 q4 -10 13 -19 l710 -710 q19 -18 32 -13 q13 6 13 32 l0 710 q4 -10 13 -19 l710 -710 q19 -18 32 -13 q13 6 13 32 l0 1472 q0 27 -13 32 q-13 6 -32 -13 l0 0 Z" /><glyph glyph-name="backward" unicode="&#xf04a;" d="M1619 1395 l-710 -710 q-9 -9 -13 -19 l0 710 q0 27 -13 32 q-13 6 -32 -13 l-710 -710 q-19 -20 -19 -45 q0 -25 19 -45 l710 -710 q19 -18 32 -13 q13 6 13 32 l0 710 q4 -10 13 -19 l710 -710 q19 -18 32 -13 q13 6 13 32 l0 1472 q0 27 -13 32 q-13 6 -32 -13 l0 0 Z" /><glyph glyph-name="play" unicode="&#xf04b;" d="M1384 609 q23 13 23 31 q0 18 -23 31 l-1328 738 q-24 12 -40 3 q-15 -9 -16 -36 l0 -1472 q1 -27 16 -36 q16 -9 40 3 l1328 738 Z" /><glyph glyph-name="pause" unicode="&#xf04c;" d="M1536 1344 q-1 27 -19 45 q-18 18 -45 19 l-512 0 q-27 -1 -45 -19 q-18 -18 -19 -45 l0 -1408 q1 -27 19 -45 q18 -18 45 -19 l512 0 q27 1 45 19 q18 18 19 45 l0 1408 ZM640 1344 q-1 27 -19 45 q-18 18 -45 19 l-512 0 q-27 -1 -45 -19 q-18 -18 -19 -45 l0 -1408 q1 -27 19 -45 q18 -18 45 -19 l512 0 q27 1 45 19 q18 18 19 45 l0 1408 Z" /><glyph glyph-name="stop" unicode="&#xf04d;" d="M1536 1344 q-1 27 -19 45 q-18 18 -45 19 l-1408 0 q-27 -1 -45 -19 q-18 -18 -19 -45 l0 -1408 q1 -27 19 -45 q18 -18 45 -19 l1408 0 q27 1 45 19 q18 18 19 45 l0 1408 Z" /><glyph glyph-name="forward" unicode="&#xf04e;" d="M45 -115 l710 710 q9 9 13 19 l0 -710 q0 -26 13 -32 q13 -5 32 13 l710 710 q19 20 19 45 q0 25 -19 45 l-710 710 q-19 19 -32 13 q-13 -5 -13 -32 l0 -710 q-4 10 -13 19 l-710 710 q-19 19 -32 13 q-13 -5 -13 -32 l0 -1472 q0 -26 13 -32 q13 -5 32 13 l0 0 Z" /><glyph glyph-name="fast_forward" unicode="&#xf050;" d="M45 -115 l710 710 q9 9 13 19 l0 -710 q0 -26 13 -32 q13 -5 32 13 l710 710 q9 9 13 19 l0 -678 q1 -27 19 -45 q18 -18 45 -19 l128 0 q27 1 45 19 q18 18 19 45 l0 1408 q-1 27 -19 45 q-18 18 -45 19 l-128 0 q-27 -1 -45 -19 q-18 -18 -19 -45 l0 -678 q-4 10 -13 19 l-710 710 q-19 19 -32 13 q-13 -5 -13 -32 l0 -710 q-4 10 -13 19 l-710 710 q-19 19 -32 13 q-13 -5 -13 -32 l0 -1472 q0 -26 13 -32 q13 -5 32 13 l0 0 Z" /><glyph glyph-name="step_forward" unicode="&#xf051;" d="M45 -115 l710 710 q9 9 13 19 l0 -678 q1 -27 19 -45 q18 -18 45 -19 l128 0 q27 1 45 19 q18 18 19 45 l0 1408 q-1 27 -19 45 q-18 18 -45 19 l-128 0 q-27 -1 -45 -19 q-18 -18 -19 -45 l0 -678 q-4 10 -13 19 l-710 710 q-19 19 -32 13 q-13 -5 -13 -32 l0 -1472 q0 -26 13 -32 q13 -5 32 13 l0 0 Z" /><glyph glyph-name="eject" unicode="&#xf052;" d="M14 557 q-18 -19 -13 -32 q6 -13 32 -13 l1472 0 q27 0 32 13 q6 13 -13 32 l-710 710 q-20 19 -45 19 q-25 0 -45 -19 l-710 -710 ZM1473 0 q27 1 45 19 q18 18 19 45 l0 256 q-1 27 -19 45 q-18 18 -45 19 l-1408 0 q-27 -1 -45 -19 q-18 -18 -19 -45 l0 -256 q1 -27 19 -45 q18 -18 45 -19 l1408 0 Z" /><glyph glyph-name="chevron_left" unicode="&#xf053;" d="M1171 1235 q19 20 19 45 q0 25 -19 45 l-166 166 q-20 19 -45 19 q-25 0 -45 -19 l-742 -742 q-19 -20 -19 -45 q0 -25 19 -45 l742 -742 q20 -19 45 -19 q25 0 45 19 l166 166 q19 20 19 45 q0 25 -19 45 l-531 531 l531 531 Z" /><glyph glyph-name="chevron_right" unicode="&#xf054;" d="M1107 659 q19 20 19 45 q0 25 -19 45 l-742 742 q-20 19 -45 19 q-25 0 -45 -19 l-166 -166 q-19 -20 -19 -45 q0 -25 19 -45 l531 -531 l-531 -531 q-19 -20 -19 -45 q0 -25 19 -45 l166 -166 q20 -19 45 -19 q25 0 45 19 l742 742 Z" /><glyph glyph-name="plus_sign" unicode="&#xf055;" d="M1216 576 q-1 -27 -19 -45 q-18 -18 -45 -19 l-256 0 l0 -256 q-1 -27 -19 -45 q-18 -18 -45 -19 l-128 0 q-27 1 -45 19 q-18 18 -19 45 l0 256 l-256 0 q-27 1 -45 19 q-18 18 -19 45 l0 128 q1 27 19 45 q18 18 45 19 l256 0 l0 256 q1 27 19 45 q18 18 45 19 l128 0 q27 -1 45 -19 q18 -18 19 -45 l0 -256 l256 0 q27 -1 45 -19 q18 -18 19 -45 l0 -128 ZM1536 640 q-8 326 -225 543 q-217 217 -543 225 q-326 -8 -543 -225 q-217 -217 -225 -543 q8 -326 225 -543 q217 -217 543 -225 q326 8 543 225 q217 217 225 543 l0 0 Z" /><glyph glyph-name="minus_sign" unicode="&#xf056;" d="M1216 576 q-1 -27 -19 -45 q-18 -18 -45 -19 l-768 0 q-27 1 -45 19 q-18 18 -19 45 l0 128 q1 27 19 45 q18 18 45 19 l768 0 q27 -1 45 -19 q18 -18 19 -45 l0 -128 ZM1536 640 q-8 326 -225 543 q-217 217 -543 225 q-326 -8 -543 -225 q-217 -217 -225 -543 q8 -326 225 -543 q217 -217 543 -225 q326 8 543 225 q217 217 225 543 l0 0 Z" /><glyph glyph-name="remove_sign" unicode="&#xf057;" d="M1149 414 q0 -13 -5 -25 q-5 -12 -14 -21 l-90 -90 q-9 -9 -21 -14 q-12 -5 -25 -5 q-13 0 -24 5 q-12 5 -21 14 l-181 181 l-181 -181 q-9 -9 -21 -14 q-11 -5 -24 -5 q-13 0 -25 5 q-12 5 -21 14 l-90 90 q-9 9 -14 21 q-5 12 -5 25 q0 13 5 24 q5 12 14 21 l181 181 l-181 181 q-9 9 -14 21 q-5 11 -5 24 q0 13 5 25 q5 12 14 21 l90 90 q9 9 21 14 q12 5 25 5 q13 0 24 -5 q12 -5 21 -14 l181 -181 l181 181 q9 9 21 14 q11 5 24 5 q13 0 25 -5 q12 -5 21 -14 l90 -90 q9 -9 14 -21 q5 -12 5 -25 q0 -13 -5 -24 q-5 -12 -14 -21 l-181 -181 l181 -181 q9 -9 14 -21 q5 -11 5 -24 l0 0 ZM1536 640 q-8 326 -225 543 q-217 217 -543 225 q-326 -8 -543 -225 q-217 -217 -225 -543 q8 -326 225 -543 q217 -217 543 -225 q326 8 543 225 q217 217 225 543 l0 0 Z" /><glyph glyph-name="ok_sign" unicode="&#xf058;" d="M1284 802 q0 -13 -4 -24 q-5 -12 -14 -21 l-543 -543 q-9 -9 -21 -14 q-12 -5 -25 -5 q-12 0 -24 5 q-12 5 -21 14 l-362 362 q-9 9 -13 21 q-5 11 -5 24 q0 13 5 25 q4 12 13 21 l91 90 q9 9 21 14 q11 5 24 5 q13 0 24 -5 q12 -5 21 -14 l226 -226 l408 407 q9 9 21 14 q11 5 24 5 q13 0 24 -5 q12 -5 21 -14 l91 -90 q9 -9 14 -21 q4 -12 4 -25 l0 0 ZM1536 640 q-8 326 -225 543 q-217 217 -543 225 q-326 -8 -543 -225 q-217 -217 -225 -543 q8 -326 225 -543 q217 -217 543 -225 q326 8 543 225 q217 217 225 543 l0 0 Z" /><glyph glyph-name="question_sign" unicode="&#xf059;" d="M896 160 q0 -14 -9 -23 q-9 -9 -23 -9 l-192 0 q-14 0 -23 9 q-9 9 -9 23 l0 192 q0 14 9 23 q9 9 23 9 l192 0 q14 0 23 -9 q9 -9 9 -23 l0 -192 ZM1152 832 q-4 -112 -61 -167 q-58 -56 -119 -86 q-36 -22 -56 -51 q-20 -29 -20 -48 l0 0 q0 -14 -9 -23 q-9 -9 -23 -9 l-192 0 q-14 0 -23 9 q-9 9 -9 23 l0 36 q4 74 57 130 q54 57 111 82 q46 20 67 44 q21 24 21 62 q-2 34 -37 59 q-36 25 -86 26 q-27 0 -50 -7 q-23 -8 -36 -17 q-13 -9 -32 -29 q-20 -19 -54 -63 q-5 -6 -11 -9 q-7 -3 -14 -3 q-11 0 -19 6 l-132 100 q-10 8 -12 20 q-3 11 4 22 q64 107 157 160 q92 53 214 53 q136 -3 247 -91 q110 -89 117 -229 l0 0 ZM1536 640 q-8 326 -225 543 q-217 217 -543 225 q-326 -8 -543 -225 q-217 -217 -225 -543 q8 -326 225 -543 q217 -217 543 -225 q326 8 543 225 q217 217 225 543 l0 0 Z" /><glyph glyph-name="info_sign" unicode="&#xf05a;" d="M1024 160 q0 -14 -9 -23 q-9 -9 -23 -9 l-448 0 q-14 0 -23 9 q-9 9 -9 23 l0 160 q0 14 9 23 q9 9 23 9 l96 0 l0 320 l-96 0 q-14 0 -23 9 q-9 9 -9 23 l0 160 q0 14 9 23 q9 9 23 9 l320 0 q14 0 23 -9 q9 -9 9 -23 l0 -512 l96 0 q14 0 23 -9 q9 -9 9 -23 l0 -160 ZM896 1056 q0 -14 -9 -23 q-9 -9 -23 -9 l-192 0 q-14 0 -23 9 q-9 9 -9 23 l0 160 q0 14 9 23 q9 9 23 9 l192 0 q14 0 23 -9 q9 -9 9 -23 l0 -160 ZM1536 640 q-8 326 -225 543 q-217 217 -543 225 q-326 -8 -543 -225 q-217 -217 -225 -543 q8 -326 225 -543 q217 -217 543 -225 q326 8 543 225 q217 217 225 543 l0 0 Z" /><glyph glyph-name="screenshot" unicode="&#xf05b;" d="M1197 512 q-34 -109 -113 -188 q-79 -79 -188 -113 l0 109 q-1 27 -19 45 q-18 18 -45 19 l-128 0 q-27 -1 -45 -19 q-18 -18 -19 -45 l0 -109 q-109 34 -188 113 q-79 79 -113 188 l109 0 q27 1 45 19 q18 18 19 45 l0 128 q-1 27 -19 45 q-18 18 -45 19 l-109 0 q34 109 113 188 q79 79 188 113 l0 -109 q1 -27 19 -45 q18 -18 45 -19 l128 0 q27 1 45 19 q18 18 19 45 l0 109 q109 -34 188 -113 q79 -79 113 -188 l-109 0 q-27 -1 -45 -19 q-18 -18 -19 -45 l0 -128 q1 -27 19 -45 q18 -18 45 -19 l109 0 ZM1536 704 q-1 27 -19 45 q-18 18 -45 19 l-143 0 q-39 164 -154 279 q-115 115 -279 154 l0 143 q-1 27 -19 45 q-18 18 -45 19 l-128 0 q-27 -1 -45 -19 q-18 -18 -19 -45 l0 -143 q-164 -39 -279 -154 q-115 -115 -154 -279 l-143 0 q-27 -1 -45 -19 q-18 -18 -19 -45 l0 -128 q1 -27 19 -45 q18 -18 45 -19 l143 0 q39 -164 154 -279 q115 -115 279 -154 l0 -143 q1 -27 19 -45 q18 -18 45 -19 l128 0 q27 1 45 19 q18 18 19 45 l0 143 q164 39 279 154 q115 115 154 279 l143 0 q27 1 45 19 q18 18 19 45 l0 128 Z" /><glyph glyph-name="remove_circle" unicode="&#xf05c;" d="M1097 457 q10 10 10 23 q0 13 -10 23 l-137 137 l137 137 q10 10 10 23 q0 13 -10 23 l-146 146 q-10 10 -23 10 q-13 0 -23 -10 l-137 -137 l-137 137 q-10 10 -23 10 q-13 0 -23 -10 l-146 -146 q-10 -10 -10 -23 q0 -13 10 -23 l137 -137 l-137 -137 q-10 -10 -10 -23 q0 -13 10 -23 l146 -146 q10 -10 23 -10 q13 0 23 10 l137 137 l137 -137 q10 -10 23 -10 q13 0 23 10 l146 146 ZM1312 640 q-6 -231 -159 -384 q-154 -154 -385 -160 q-231 6 -384 160 q-154 153 -160 384 q6 231 160 385 q153 153 384 159 q231 -6 385 -159 q153 -154 159 -385 l0 0 ZM1536 640 q-8 326 -225 543 q-217 217 -543 225 q-326 -8 -543 -225 q-217 -217 -225 -543 q8 -326 225 -543 q217 -217 543 -225 q326 8 543 225 q217 217 225 543 l0 0 Z" /><glyph glyph-name="ok_circle" unicode="&#xf05d;" d="M1171 723 q19 20 19 45 q0 25 -19 45 l-102 102 q-20 19 -45 19 q-25 0 -45 -19 l-275 -275 l-147 147 q-20 19 -45 19 q-25 0 -45 -19 l-102 -102 q-19 -20 -19 -45 q0 -25 19 -45 l294 -294 q20 -19 45 -19 q25 0 45 19 l422 422 ZM1312 640 q-6 -231 -159 -384 q-154 -154 -385 -160 q-231 6 -384 160 q-154 153 -160 384 q6 231 160 385 q153 153 384 159 q231 -6 385 -159 q153 -154 159 -385 l0 0 ZM1536 640 q-8 326 -225 543 q-217 217 -543 225 q-326 -8 -543 -225 q-217 -217 -225 -543 q8 -326 225 -543 q217 -217 543 -225 q326 8 543 225 q217 217 225 543 l0 0 Z" /><glyph glyph-name="ban_circle" unicode="&#xf05e;" d="M1312 643 q-6 -232 -159 -387 q-154 -154 -385 -160 q-82 0 -157 24 q-75 23 -140 65 l754 753 q42 -64 64 -138 q23 -75 23 -157 l0 0 ZM313 344 q-42 65 -65 140 q-24 76 -24 159 q6 232 160 386 q153 154 384 160 q84 0 159 -24 q76 -23 141 -67 l-755 -754 ZM1536 643 q-8 327 -225 544 q-217 218 -543 226 q-326 -8 -543 -226 q-217 -217 -225 -544 q8 -328 225 -545 q217 -218 543 -226 q326 8 543 226 q217 217 225 545 l0 0 Z" /><glyph glyph-name="arrow_left" unicode="&#xf060;" d="M1536 640 q-1 53 -31 90 q-31 36 -86 38 l-704 0 l293 293 q18 18 28 42 q10 23 10 49 q0 26 -10 49 q-10 24 -28 42 l-75 74 q-18 18 -41 28 q-23 10 -49 10 q-26 0 -49 -10 q-24 -10 -42 -28 l-651 -650 q-17 -18 -27 -42 q-10 -23 -10 -49 q0 -26 10 -49 q10 -23 27 -41 l651 -652 q18 -17 42 -27 q23 -10 49 -10 q26 0 49 10 q23 10 41 27 l75 76 q18 18 28 41 q10 23 10 49 q0 26 -10 49 q-10 23 -28 41 l-293 294 l704 0 q55 2 86 39 q30 36 31 89 l0 128 Z" /><glyph glyph-name="arrow_right" unicode="&#xf061;" d="M1472 576 q0 26 -9 49 q-10 23 -28 41 l-651 651 q-18 18 -42 28 q-23 10 -49 10 q-26 0 -49 -10 q-23 -10 -41 -28 l-75 -75 q-18 -18 -28 -41 q-10 -23 -10 -49 q0 -26 10 -49 q10 -23 28 -41 l293 -294 l-704 0 q-55 -2 -85 -38 q-31 -37 -32 -90 l0 -128 q1 -53 32 -89 q30 -37 85 -39 l704 0 l-293 -293 q-18 -18 -28 -42 q-10 -23 -10 -49 q0 -26 10 -49 q10 -24 28 -42 l75 -75 q18 -17 41 -27 q23 -10 49 -10 q26 0 49 10 q24 10 42 27 l651 651 q18 18 28 42 q9 23 9 49 l0 0 Z" /><glyph glyph-name="arrow_up" unicode="&#xf062;" d="M1611 565 q0 26 -10 49 q-10 24 -27 42 l-651 651 q-18 18 -42 28 q-23 9 -49 9 q-26 0 -49 -9 q-23 -10 -41 -28 l-651 -651 q-18 -18 -28 -42 q-10 -23 -10 -49 q0 -26 10 -49 q10 -23 28 -41 l75 -75 q18 -18 41 -28 q23 -10 49 -10 q26 0 49 10 q23 10 41 28 l294 293 l0 -704 q2 -55 39 -85 q36 -31 89 -32 l128 0 q53 1 90 32 q36 30 38 85 l0 704 l294 -293 q18 -18 41 -28 q23 -10 49 -10 q26 0 49 10 q24 10 42 28 l75 75 q17 18 27 41 q10 23 10 49 l0 0 Z" /><glyph glyph-name="arrow_down" unicode="&#xf063;" d="M1611 704 q0 26 -10 49 q-10 24 -27 42 l-75 75 q-18 17 -42 27 q-23 10 -49 10 q-26 0 -49 -10 q-23 -10 -41 -27 l-294 -294 l0 704 q-1 54 -38 90 q-36 37 -90 38 l-128 0 q-54 -1 -90 -38 q-37 -36 -38 -90 l0 -704 l-294 294 q-18 17 -41 27 q-23 10 -49 10 q-26 0 -49 -10 q-24 -10 -42 -27 l-74 -75 q-18 -18 -28 -42 q-10 -23 -10 -49 q0 -26 10 -49 q10 -23 28 -41 l651 -652 q18 -17 41 -27 q23 -10 49 -10 q26 0 49 10 q24 10 42 27 l651 652 q17 18 27 41 q10 23 10 49 l0 0 Z" /><glyph glyph-name="share_alt" unicode="&#xf064;" d="M1792 896 q0 13 -5 24 q-5 12 -14 21 l-512 512 q-9 9 -21 14 q-11 5 -24 5 q-27 -1 -45 -19 q-18 -18 -19 -45 l0 -256 l-224 0 q-257 7 -508 -72 q-252 -79 -367 -331 q-31 -80 -42 -164 q-12 -85 -11 -169 q3 -108 42 -230 q40 -122 85 -221 q8 -18 17 -39 q9 -21 20 -37 q5 -8 11 -12 q7 -5 17 -5 q15 0 24 10 q8 10 8 25 q0 12 -2 25 q-2 13 -3 25 q-5 62 -5 123 q4 348 195 459 q192 111 519 101 l224 0 l0 -256 q1 -27 19 -45 q18 -18 45 -19 q13 0 24 5 q12 5 21 14 l512 512 q9 9 14 21 q5 11 5 24 l0 0 Z" /><glyph glyph-name="resize_full" unicode="&#xf065;" d="M755 480 q0 6 -3 12 q-2 6 -7 11 l-114 114 q-5 5 -11 7 q-6 3 -12 3 q-6 0 -12 -3 q-6 -2 -11 -7 l-332 -332 l-144 144 q-9 9 -21 14 q-11 5 -24 5 q-27 -1 -45 -19 q-18 -18 -19 -45 l0 -448 q1 -27 19 -45 q18 -18 45 -19 l448 0 q27 1 45 19 q18 18 19 45 q0 13 -5 24 q-5 12 -14 21 l-144 144 l332 332 q5 5 7 11 q3 6 3 12 l0 0 ZM1536 1344 q-1 27 -19 45 q-18 18 -45 19 l-448 0 q-27 -1 -45 -19 q-18 -18 -19 -45 q0 -13 5 -24 q5 -12 14 -21 l144 -144 l-332 -332 q-5 -5 -7 -11 q-3 -6 -3 -12 q0 -6 3 -12 q2 -6 7 -11 l114 -114 q5 -5 11 -7 q6 -3 12 -3 q6 0 12 3 q6 2 11 7 l332 332 l144 -144 q9 -9 21 -14 q11 -5 24 -5 q27 1 45 19 q18 18 19 45 l0 448 Z" /><glyph glyph-name="resize_small" unicode="&#xf066;" d="M768 576 q-1 27 -19 45 q-18 18 -45 19 l-448 0 q-27 -1 -45 -19 q-18 -18 -19 -45 q0 -13 5 -24 q5 -12 14 -21 l144 -144 l-332 -332 q-5 -5 -7 -11 q-3 -6 -3 -12 q0 -6 3 -12 q2 -6 7 -11 l114 -114 q5 -5 11 -7 q6 -3 12 -3 q6 0 12 3 q6 2 11 7 l332 332 l144 -144 q9 -9 21 -14 q11 -5 24 -5 q27 1 45 19 q18 18 19 45 l0 448 ZM1523 1248 q0 6 -3 12 q-2 6 -7 11 l-114 114 q-5 5 -11 7 q-6 3 -12 3 q-6 0 -12 -3 q-6 -2 -11 -7 l-332 -332 l-144 144 q-9 9 -21 14 q-11 5 -24 5 q-27 -1 -45 -19 q-18 -18 -19 -45 l0 -448 q1 -27 19 -45 q18 -18 45 -19 l448 0 q27 1 45 19 q18 18 19 45 q0 13 -5 24 q-5 12 -14 21 l-144 144 l332 332 q5 5 7 11 q3 6 3 12 l0 0 Z" /><glyph glyph-name="exclamation_sign" unicode="&#xf06a;" d="M768 1408 q-326 -8 -543 -225 q-217 -217 -225 -543 q8 -326 225 -543 q217 -217 543 -225 q326 8 543 225 q217 217 225 543 q-8 326 -225 543 q-217 217 -543 225 l0 0 ZM896 161 q0 -14 -9 -23 q-9 -10 -22 -10 l-192 0 q-14 0 -23 10 q-10 9 -10 23 l0 190 q0 14 10 23 q9 10 23 10 l192 0 q13 0 22 -10 q9 -9 9 -23 l0 -190 ZM894 505 q-1 -11 -11 -18 q-9 -7 -23 -7 l-185 0 q-15 0 -24 7 q-10 7 -10 18 l-17 621 q0 5 2 10 q3 5 8 8 q5 4 11 6 q6 2 13 2 l220 0 q7 0 13 -2 q6 -2 11 -6 q5 -3 8 -8 q2 -5 2 -10 l-18 -621 Z" /><glyph glyph-name="gift" unicode="&#xf06b;" d="M928 180 q-1 -26 -19 -39 q-18 -13 -45 -13 l-192 0 q-27 0 -45 13 q-18 13 -19 39 l0 56 l0 468 l0 192 l320 0 l0 -192 l0 -468 l0 -56 ZM472 1024 q-41 1 -68 28 q-27 27 -28 68 q1 41 28 68 q27 27 68 28 q26 -1 43 -11 q18 -10 26 -20 l126 -161 l-195 0 ZM1160 1120 q-1 -41 -28 -68 q-27 -27 -68 -28 l-194 0 l125 161 q8 10 26 20 q17 10 43 11 q41 -1 68 -28 q27 -27 28 -68 l0 0 ZM1536 864 q0 14 -9 23 q-9 9 -23 9 l-440 0 q95 2 159 66 q63 63 65 158 q-2 95 -65 159 q-64 63 -159 65 q-51 0 -94 -20 q-44 -20 -74 -57 l-128 -165 l-128 165 q-30 37 -73 57 q-44 20 -95 20 q-95 -2 -158 -65 q-64 -64 -66 -159 q2 -95 66 -158 q63 -64 158 -66 l-440 0 q-14 0 -23 -9 q-9 -9 -9 -23 l0 -320 q0 -14 9 -23 q9 -9 23 -9 l96 0 l0 -416 q1 -41 28 -68 q27 -27 68 -28 l1088 0 q41 1 68 28 q27 27 28 68 l0 416 l96 0 q14 0 23 9 q9 9 9 23 l0 320 Z" /><glyph glyph-name="leaf" unicode="&#xf06c;" d="M1280 832 q-1 -27 -19 -45 q-18 -18 -45 -19 q-181 1 -315 -53 q-135 -54 -267 -175 q-36 -34 -70 -69 q-35 -35 -71 -68 q-10 -9 -21 -14 q-11 -5 -24 -5 q-27 1 -45 19 q-18 18 -19 45 q0 13 5 24 q5 11 14 21 q169 193 360 297 q192 105 453 106 q27 -1 45 -19 q18 -18 19 -45 l0 0 ZM1792 1030 q1 79 -33 221 q-33 141 -117 157 q-60 -1 -94 -30 q-33 -28 -72 -68 q-121 -88 -365 -84 q-245 3 -415 -37 q-220 -72 -375 -235 q-155 -164 -162 -404 q0 -53 9 -104 q5 -17 17 -45 q12 -28 13 -37 q-12 -43 -99 -104 q-87 -61 -99 -139 q0 -15 5 -23 q4 -9 11 -21 q19 -35 41 -56 q22 -20 68 -21 q65 13 112 102 q48 89 85 102 q33 -3 89 -33 q56 -31 95 -46 q69 -23 141 -35 q73 -12 145 -12 q114 0 225 29 q111 28 213 79 q210 102 351 261 q141 158 191 390 q10 48 15 97 q5 48 5 96 l0 0 Z" /><glyph glyph-name="fire" unicode="&#xf06d;" d="M1408 -160 q0 13 -10 22 q-9 10 -22 10 l-1344 0 q-13 0 -22 -10 q-10 -9 -10 -22 l0 -64 q0 -13 10 -22 q9 -10 22 -10 l1344 0 q13 0 22 10 q10 9 10 22 l0 64 ZM1152 896 q-6 250 -152 399 q-147 149 -360 241 l1 -1 l-3 1 q24 -47 45 -109 q20 -61 21 -115 q-28 -173 -224 -288 q-196 -115 -224 -384 q6 -250 153 -399 q146 -149 359 -241 l-1 1 l4 -1 q-25 47 -45 109 q-21 61 -22 115 q28 173 224 288 q196 115 224 384 l0 0 Z" /><glyph glyph-name="eye_open" unicode="&#xf06e;" d="M1664 576 q-130 -201 -328 -323 q-197 -122 -440 -125 q-243 3 -440 125 q-198 122 -328 323 q72 111 168 202 q96 90 213 151 q-30 -51 -45 -108 q-16 -57 -16 -117 q5 -190 131 -317 q127 -126 317 -131 q190 5 317 131 q126 127 131 317 q0 60 -15 117 q-16 57 -46 108 q117 -61 213 -151 q96 -91 168 -202 l0 0 ZM944 960 q-1 -20 -14 -34 q-14 -13 -34 -14 q-88 -2 -147 -61 q-59 -59 -61 -147 q-1 -20 -14 -34 q-14 -13 -34 -14 q-20 1 -34 14 q-13 14 -14 34 q3 129 89 215 q86 86 215 89 q20 -1 34 -14 q13 -14 14 -34 l0 0 ZM1792 576 q0 19 -5 36 q-6 17 -15 33 q-142 230 -374 367 q-232 137 -502 140 q-270 -3 -502 -140 q-232 -137 -374 -367 q-9 -16 -14 -33 q-6 -17 -6 -36 q0 -19 6 -36 q5 -17 14 -33 q142 -230 374 -367 q232 -137 502 -140 q270 3 502 140 q232 136 374 367 q9 16 15 33 q5 17 5 36 l0 0 Z" /><glyph glyph-name="eye_close" unicode="&#xf070;" d="M555 201 q-132 60 -240 157 q-109 96 -187 218 q72 111 168 202 q96 90 213 151 q-30 -51 -45 -108 q-16 -57 -16 -117 q1 -109 49 -203 q48 -95 136 -159 l-78 -141 ZM944 960 q-1 -20 -14 -34 q-14 -13 -34 -14 q-88 -2 -147 -61 q-59 -59 -61 -147 q-1 -20 -14 -34 q-14 -13 -34 -14 q-20 1 -34 14 q-13 14 -14 34 q3 129 89 215 q86 86 215 89 q20 -1 34 -14 q13 -14 14 -34 l0 0 ZM1307 1151 q0 8 -4 15 q-4 7 -12 12 q-20 12 -68 40 q-47 27 -65 30 q-9 0 -16 -4 q-7 -4 -12 -12 l-54 -97 q-44 8 -90 13 q-45 4 -90 4 q-278 -3 -502 -139 q-224 -137 -374 -368 q-10 -15 -15 -33 q-5 -18 -5 -36 q0 -19 5 -36 q5 -18 15 -33 q87 -136 206 -243 q120 -108 266 -175 q-9 -15 -26 -44 q-16 -29 -18 -43 q0 -9 4 -16 q4 -7 12 -12 q20 -12 68 -39 q48 -28 66 -31 q8 0 16 4 q7 4 12 12 l49 89 q158 283 316 567 q157 283 315 566 q1 2 1 5 q0 2 0 4 l0 0 ZM1344 704 q0 42 -8 84 l-280 -502 q132 52 209 164 q77 112 79 254 l0 0 ZM1792 576 q0 19 -5 36 q-5 17 -15 33 q-60 98 -146 186 q-86 88 -181 151 l-63 -112 q85 -59 156 -133 q70 -74 126 -161 q-118 -184 -296 -303 q-178 -120 -398 -141 l-74 -132 q227 2 423 97 q196 95 344 265 q30 34 58 70 q28 37 51 75 q10 16 15 33 q5 17 5 36 l0 0 Z" /><glyph glyph-name="warning_sign" unicode="&#xf071;" d="M1024 161 q0 -14 -9 -23 q-9 -10 -23 -10 l-192 0 q-14 0 -23 10 q-9 9 -9 23 l0 190 q0 14 9 23 q9 10 23 10 l192 0 q14 0 23 -10 q9 -9 9 -23 l0 -190 ZM1022 535 q-1 -10 -11 -16 q-9 -7 -23 -7 l-185 0 q-15 0 -24 7 q-10 6 -10 16 l-17 457 q0 5 2 11 q3 6 8 10 q5 4 11 7 q6 4 13 4 l220 0 q7 0 13 -4 q6 -3 11 -7 q5 -4 8 -9 q2 -5 2 -10 l-18 -459 ZM1008 1469 q-17 31 -47 49 q-29 18 -65 18 q-36 0 -65 -18 q-30 -18 -47 -49 l-768 -1408 q-16 -30 -16 -63 q1 -33 18 -63 q18 -30 47 -46 q29 -17 63 -17 l1536 0 q34 0 63 17 q29 16 47 46 q17 30 18 63 q0 33 -16 63 l-768 1408 Z" /><glyph glyph-name="plane" unicode="&#xf072;" d="M1376 1376 q-53 45 -148 12 q-95 -33 -172 -108 l-160 -160 l-665 159 q-8 2 -16 0 q-8 -3 -14 -8 l-128 -128 q-5 -5 -7 -13 q-3 -7 -2 -14 q2 -8 6 -14 q4 -6 11 -10 l508 -279 l-259 -259 l-194 53 q-3 1 -8 1 q-6 0 -12 -2 q-6 -2 -11 -7 l-96 -97 q-5 -5 -7 -12 q-3 -6 -2 -13 q1 -7 4 -13 q3 -6 9 -10 l252 -189 l189 -252 q9 -12 24 -13 q1 0 2 0 q6 0 12 2 q6 3 11 7 l96 96 q6 7 8 15 q2 8 0 16 l-53 194 l259 259 l279 -508 q3 -7 9 -11 q5 -4 12 -5 q4 -1 7 -1 q11 0 19 6 l128 96 q8 6 11 15 q3 9 1 18 l-160 696 l161 161 q75 77 108 172 q33 95 -12 148 l0 0 Z" /><glyph glyph-name="calendar" unicode="&#xf073;" d="M128 -128 l0 288 l288 0 l0 -288 l-288 0 ZM480 -128 l0 288 l320 0 l0 -288 l-320 0 ZM128 224 l0 320 l288 0 l0 -320 l-288 0 ZM480 224 l0 320 l320 0 l0 -320 l-320 0 ZM128 608 l0 288 l288 0 l0 -288 l-288 0 ZM864 -128 l0 288 l320 0 l0 -288 l-320 0 ZM480 608 l0 288 l320 0 l0 -288 l-320 0 ZM1248 -128 l0 288 l288 0 l0 -288 l-288 0 ZM864 224 l0 320 l320 0 l0 -320 l-320 0 ZM512 1088 q0 -13 -10 -22 q-9 -10 -22 -10 l-64 0 q-13 0 -22 10 q-10 9 -10 22 l0 288 q0 13 10 22 q9 10 22 10 l64 0 q13 0 22 -10 q10 -9 10 -22 l0 -288 ZM1248 224 l0 320 l288 0 l0 -320 l-288 0 ZM864 608 l0 288 l320 0 l0 -288 l-320 0 ZM1248 608 l0 288 l288 0 l0 -288 l-288 0 ZM1280 1088 q0 -13 -10 -22 q-9 -10 -22 -10 l-64 0 q-13 0 -22 10 q-10 9 -10 22 l0 288 q0 13 10 22 q9 10 22 10 l64 0 q13 0 22 -10 q10 -9 10 -22 l0 -288 ZM1664 1152 q-1 54 -38 90 q-36 37 -90 38 l-128 0 l0 96 q-2 68 -47 113 q-45 45 -113 47 l-64 0 q-68 -2 -113 -47 q-45 -45 -47 -113 l0 -96 l-384 0 l0 96 q-2 68 -47 113 q-45 45 -113 47 l-64 0 q-68 -2 -113 -47 q-45 -45 -47 -113 l0 -96 l-128 0 q-54 -1 -90 -38 q-37 -36 -38 -90 l0 -1280 q1 -54 38 -90 q36 -37 90 -38 l1408 0 q54 1 90 38 q37 36 38 90 l0 1280 Z" /><glyph glyph-name="random" unicode="&#xf074;" d="M666 1055 q-75 107 -176 166 q-101 58 -234 59 l-224 0 q-14 0 -23 -9 q-9 -9 -9 -23 l0 -192 q0 -14 9 -23 q9 -9 23 -9 l224 0 q111 -4 171 -76 q61 -71 102 -166 q30 71 63 140 q32 68 74 133 l0 0 ZM1792 256 q0 6 -2 12 q-2 6 -7 11 l-319 319 q-10 10 -24 10 q-14 0 -23 -9 q-9 -9 -9 -23 l0 -192 l-256 0 q-111 4 -171 76 q-61 71 -102 166 q-30 -71 -62 -139 q-33 -69 -74 -134 q135 -185 291 -210 q155 -25 374 -15 l0 -192 q0 -13 10 -22 q9 -10 22 -10 q6 0 12 2 q6 3 11 7 l320 320 q5 5 7 11 q2 6 2 12 l0 0 ZM1792 1152 q0 6 -2 12 q-2 6 -7 11 l-319 319 q-10 10 -24 10 q-14 0 -23 -9 q-9 -9 -9 -23 l0 -192 l-256 0 q-238 -9 -363 -166 q-125 -158 -203 -360 q-18 -43 -37 -86 q-19 -43 -41 -85 q-40 -83 -97 -140 q-57 -57 -155 -59 l-224 0 q-14 0 -23 -9 q-9 -9 -9 -23 l0 -192 q0 -14 9 -23 q9 -9 23 -9 l224 0 q238 9 363 166 q125 158 203 360 q18 43 37 86 q19 43 41 85 q40 83 97 140 q57 57 155 59 l256 0 l0 -192 q0 -14 10 -23 q9 -9 22 -9 q6 0 12 2 q6 3 11 7 l320 320 q5 5 7 11 q2 6 2 12 l0 0 Z" /><glyph glyph-name="comment" unicode="&#xf075;" d="M1792 640 q-10 272 -262 453 q-253 180 -634 187 q-381 -7 -634 -188 q-252 -180 -262 -452 q2 -154 92 -283 q90 -129 246 -218 q-36 -122 -85 -185 q-49 -63 -97 -113 q-12 -13 -21 -26 q-9 -14 -6 -32 q0 0 0 -1 q4 -18 18 -29 q13 -10 30 -9 q29 4 58 9 q29 6 56 13 q130 33 246 94 q116 61 214 148 q35 -4 72 -6 q36 -2 73 -2 q381 7 634 187 q252 181 262 453 l0 0 Z" /><glyph glyph-name="magnet" unicode="&#xf076;" d="M1536 704 q-1 27 -19 45 q-18 18 -45 19 l-384 0 q-27 -1 -45 -19 q-18 -18 -19 -45 l0 -128 q-12 -132 -112 -165 q-100 -32 -144 -27 q-44 -5 -144 27 q-100 33 -112 165 l0 128 q-1 27 -19 45 q-18 18 -45 19 l-384 0 q-27 -1 -45 -19 q-18 -18 -19 -45 l0 -128 q6 -312 217 -505 q211 -193 551 -199 q340 6 551 199 q211 193 217 505 l0 128 ZM512 1344 q-1 27 -19 45 q-18 18 -45 19 l-384 0 q-27 -1 -45 -19 q-18 -18 -19 -45 l0 -384 q1 -27 19 -45 q18 -18 45 -19 l384 0 q27 1 45 19 q18 18 19 45 l0 384 ZM1536 1344 q-1 27 -19 45 q-18 18 -45 19 l-384 0 q-27 -1 -45 -19 q-18 -18 -19 -45 l0 -384 q1 -27 19 -45 q18 -18 45 -19 l384 0 q27 1 45 19 q18 18 19 45 l0 384 Z" /><glyph glyph-name="chevron_up" unicode="&#xf077;" d="M1683 205 q19 20 19 46 q0 25 -19 45 l-742 741 q-20 19 -45 19 q-25 0 -45 -19 l-742 -741 q-19 -20 -19 -45 q0 -26 19 -46 l166 -165 q20 -19 45 -19 q25 0 45 19 l531 531 l531 -531 q20 -19 45 -19 q25 0 45 19 l166 165 Z" /><glyph glyph-name="chevron_down" unicode="&#xf078;" d="M1683 728 q19 20 19 46 q0 25 -19 45 l-166 165 q-20 19 -45 19 q-25 0 -45 -19 l-531 -531 l-531 531 q-20 19 -45 19 q-25 0 -45 -19 l-166 -165 q-19 -20 -19 -45 q0 -26 19 -46 l742 -741 q20 -19 45 -19 q25 0 45 19 l742 741 Z" /><glyph glyph-name="retweet" unicode="&#xf079;" d="M1280 32 q0 5 -2 11 q-2 5 -5 10 l-160 192 q-5 5 -11 8 q-7 3 -14 3 l-576 0 l0 384 l192 0 q27 1 45 19 q18 18 19 45 q0 11 -4 22 q-3 11 -11 19 l-320 384 q-9 11 -22 16 q-13 6 -27 6 q-14 0 -27 -6 q-13 -5 -22 -16 l-320 -384 q-7 -8 -11 -19 q-4 -11 -4 -22 q1 -27 19 -45 q18 -18 45 -19 l192 0 l0 -416 l0 -160 q-1 -20 2 -41 q4 -21 30 -23 l960 0 q13 0 22 10 q10 9 10 22 l0 0 ZM1920 448 q-1 27 -19 45 q-18 18 -45 19 l-192 0 l0 416 l0 160 q1 20 -2 41 q-4 21 -30 23 l-960 0 q-13 0 -22 -10 q-10 -9 -10 -22 q0 -5 2 -11 q2 -5 5 -9 l160 -192 q5 -6 11 -9 q7 -3 14 -3 l576 0 l0 -384 l-192 0 q-27 -1 -45 -19 q-18 -18 -19 -45 q0 -11 4 -22 q4 -11 11 -19 l320 -384 q9 -11 22 -17 q13 -6 27 -6 q14 0 27 6 q13 6 22 17 l320 384 q8 8 11 19 q4 11 4 22 l0 0 Z" /><glyph glyph-name="shopping_cart" unicode="&#xf07a;" d="M640 0 q-1 54 -38 90 q-36 37 -90 38 q-54 -1 -90 -38 q-37 -36 -38 -90 q1 -54 38 -90 q36 -37 90 -38 q54 1 90 38 q37 36 38 90 l0 0 ZM1536 0 q-1 54 -38 90 q-36 37 -90 38 q-54 -1 -90 -38 q-37 -36 -38 -90 q1 -54 38 -90 q36 -37 90 -38 q54 1 90 38 q37 36 38 90 l0 0 ZM1664 1088 q-1 27 -19 45 q-18 18 -45 19 l-1201 0 q-5 40 -18 82 q-13 43 -61 46 l-256 0 q-27 -1 -45 -19 q-18 -18 -19 -45 q1 -27 19 -45 q18 -18 45 -19 l204 0 l177 -823 q-14 -26 -36 -68 q-23 -43 -25 -69 q1 -27 19 -45 q18 -18 45 -19 l1024 0 q27 1 45 19 q18 18 19 45 q-1 27 -19 45 q-18 18 -45 19 l-920 0 q8 15 16 31 q7 16 8 33 q0 18 -5 35 q-4 18 -8 35 l1044 122 q25 4 41 22 q15 17 16 42 l0 512 Z" /><glyph glyph-name="folder_close" unicode="&#xf07b;" d="M1664 928 q-2 95 -66 158 q-63 64 -158 66 l-672 0 l0 32 q-2 95 -66 158 q-63 64 -158 66 l-320 0 q-95 -2 -158 -66 q-64 -63 -66 -158 l0 -960 q2 -95 66 -158 q63 -64 158 -66 l1216 0 q95 2 158 66 q64 63 66 158 l0 704 Z" /><glyph glyph-name="folder_open" unicode="&#xf07c;" d="M1879 584 q-2 33 -30 45 q-28 12 -57 11 l-1088 0 q-69 -1 -143 -35 q-75 -35 -121 -87 l-336 -396 q-12 -14 -21 -31 q-10 -17 -10 -35 q2 -33 30 -45 q28 -12 57 -11 l1088 0 q69 1 143 36 q75 34 121 86 l336 396 q12 14 22 31 q9 17 9 35 l0 0 ZM1536 928 q-2 95 -66 158 q-63 64 -158 66 l-544 0 l0 32 q-2 95 -66 158 q-63 64 -158 66 l-320 0 q-95 -2 -158 -66 q-64 -63 -66 -158 l0 -960 q0 -6 1 -12 q0 -7 0 -13 l5 6 l337 396 q64 73 164 120 q100 46 197 47 l832 0 l0 160 Z" /><glyph glyph-name="resize_vertical" unicode="&#xf07d;" d="M704 1216 q0 13 -5 24 q-5 12 -14 21 l-256 256 q-9 9 -21 14 q-11 5 -24 5 q-13 0 -24 -5 q-12 -5 -21 -14 l-256 -256 q-9 -9 -14 -21 q-5 -11 -5 -24 q1 -27 19 -45 q18 -18 45 -19 l128 0 l0 -1024 l-128 0 q-27 -1 -45 -19 q-18 -18 -19 -45 q0 -13 5 -24 q5 -12 14 -21 l256 -256 q9 -9 21 -14 q11 -5 24 -5 q13 0 24 5 q12 5 21 14 l256 256 q9 9 14 21 q5 11 5 24 q-1 27 -19 45 q-18 18 -45 19 l-128 0 l0 1024 l128 0 q27 1 45 19 q18 18 19 45 l0 0 Z" /><glyph glyph-name="resize_horizontal" unicode="&#xf07e;" d="M1792 640 q0 13 -5 24 q-5 12 -14 21 l-256 256 q-9 9 -21 14 q-11 5 -24 5 q-27 -1 -45 -19 q-18 -18 -19 -45 l0 -128 l-1024 0 l0 128 q-1 27 -19 45 q-18 18 -45 19 q-13 0 -24 -5 q-12 -5 -21 -14 l-256 -256 q-9 -9 -14 -21 q-5 -11 -5 -24 q0 -13 5 -24 q5 -12 14 -21 l256 -256 q9 -9 21 -14 q11 -5 24 -5 q27 1 45 19 q18 18 19 45 l0 128 l1024 0 l0 -128 q1 -27 19 -45 q18 -18 45 -19 q13 0 24 5 q12 5 21 14 l256 256 q9 9 14 21 q5 11 5 24 l0 0 Z" /><glyph glyph-name="bar_chart" unicode="&#xf080;" d="M640 640 l-256 0 l0 -512 l256 0 l0 512 ZM1024 1152 l-256 0 l0 -1024 l256 0 l0 1024 ZM2048 0 l-1920 0 l0 1408 l-128 0 l0 -1536 l2048 0 l0 128 ZM1408 896 l-256 0 l0 -768 l256 0 l0 768 ZM1792 1280 l-256 0 l0 -1152 l256 0 l0 1152 Z" /><glyph glyph-name="twitter_sign" unicode="&#xf081;" d="M226 1522 l1085 0 q92 -1 152 -64 q64 -61 66 -153 l0 -1085 q-2 -91 -66 -153 q-60 -62 -152 -64 l-1085 0 q-92 2 -152 64 q-63 62 -64 153 l0 1085 q1 92 64 153 q60 63 152 64 ZM1233 1237 l-160 0 l-266 -303 l-230 303 l-332 0 l398 -519 l-376 -430 l161 0 l290 333 l255 -333 l323 0 l-413 547 l350 402 ZM1116 385 l-88 0 l-583 761 l96 0 l575 -761 Z" /><glyph glyph-name="facebook_sign" unicode="&#xf082;" d="M1248 1408 l-960 0 q-122 -3 -204 -84 q-81 -82 -84 -204 l0 -960 q3 -122 84 -204 q82 -81 204 -84 l532 0 l0 595 l-200 0 l0 232 l200 0 l0 171 q2 149 83 227 q81 78 216 79 q64 0 113 -3 q48 -3 65 -6 l0 -207 l-122 -1 q-71 -1 -94 -31 q-23 -30 -21 -81 l0 -148 l229 0 l-30 -232 l-199 0 l0 -595 l188 0 q122 3 204 84 q81 82 84 204 l0 960 q-3 122 -84 204 q-82 81 -204 84 l0 0 Z" /><glyph glyph-name="camera_retro" unicode="&#xf083;" d="M928 704 q0 -14 -9 -23 q-9 -9 -23 -9 q-41 -1 -68 -28 q-27 -27 -28 -68 q0 -14 -9 -23 q-9 -9 -23 -9 q-14 0 -23 9 q-9 9 -9 23 q2 68 47 113 q45 45 113 47 q14 0 23 -9 q9 -9 9 -23 l0 0 ZM1152 574 q-3 109 -75 181 q-72 72 -181 75 q-109 -3 -181 -75 q-72 -72 -75 -181 q3 -109 75 -181 q72 -72 181 -75 q109 3 181 75 q72 72 75 181 l0 0 ZM128 0 l0 128 l1536 0 l0 -128 l-1536 0 ZM1280 574 q-4 -163 -112 -271 q-109 -109 -272 -113 q-163 4 -271 113 q-109 108 -113 271 q4 163 113 272 q108 108 271 112 q163 -4 272 -112 q108 -109 112 -272 l0 0 ZM256 1216 l0 128 l384 0 l0 -128 l-384 0 ZM128 1024 l0 128 l644 0 l64 128 l828 0 l0 -138 l0 -118 l-1536 0 ZM1792 1280 q-1 55 -37 91 q-36 36 -91 37 l-1536 0 q-55 -1 -91 -37 q-36 -36 -37 -91 l0 -1280 q1 -55 37 -91 q36 -36 91 -37 l1536 0 q55 1 91 37 q36 36 37 91 l0 1280 Z" /><glyph glyph-name="key" unicode="&#xf084;" d="M832 1024 q-2 -82 -56 -136 q-54 -54 -136 -56 q-22 0 -43 5 q-20 5 -40 14 q9 -20 14 -40 q5 -21 5 -43 q-2 -82 -56 -136 q-54 -54 -136 -56 q-82 2 -136 56 q-54 54 -56 136 q2 82 56 136 q54 54 136 56 q22 0 43 -5 q20 -5 40 -14 q-9 20 -14 40 q-5 21 -5 43 q2 82 56 136 q54 54 136 56 q82 -2 136 -56 q54 -54 56 -136 l0 0 ZM1683 320 q-16 36 -144 162 q-128 125 -172 167 q-5 5 -11 7 q-6 3 -12 3 q-22 -5 -66 -49 q-44 -44 -49 -66 q5 -23 50 -66 q44 -43 65 -62 l-96 -96 l-355 355 q59 79 95 172 q35 93 36 193 q-3 166 -103 266 q-100 99 -265 102 q-256 -10 -451 -205 q-195 -195 -205 -451 q3 -165 102 -265 q100 -100 266 -103 q100 1 193 36 q93 36 172 95 l671 -671 q14 -14 31 -21 q18 -7 37 -7 q44 2 81 39 q37 37 39 81 q0 19 -7 37 q-7 17 -21 31 l-220 220 l96 96 q19 -21 62 -65 q43 -45 66 -50 q22 5 66 49 q44 44 49 66 l0 0 Z" /><glyph glyph-name="cogs" unicode="&#xf085;" d="M896 640 q-3 -109 -75 -181 q-72 -72 -181 -75 q-109 3 -181 75 q-72 72 -75 181 q3 109 75 181 q72 72 181 75 q109 -3 181 -75 q72 -72 75 -181 l0 0 ZM1664 128 q-1 -54 -37 -90 q-36 -37 -91 -38 q-54 1 -90 37 q-37 36 -38 91 q1 54 38 90 q36 37 90 38 q54 -1 90 -38 q37 -36 38 -90 l0 0 ZM1664 1152 q-1 -54 -37 -90 q-36 -37 -91 -38 q-54 1 -90 37 q-37 36 -38 91 q1 54 38 90 q36 37 90 38 q54 -1 90 -38 q37 -36 38 -90 l0 0 ZM1280 731 q0 11 -7 19 q-6 8 -17 11 l-152 23 q-7 21 -15 41 q-9 21 -19 41 q21 29 43 57 q22 28 44 57 q3 4 5 9 q2 5 2 10 q-7 26 -62 82 q-56 55 -82 78 q-9 8 -21 8 q-11 0 -20 -7 l-118 -89 q-36 19 -75 31 l-23 153 q-2 11 -10 18 q-9 7 -20 7 l-186 0 q-11 0 -19 -7 q-8 -6 -11 -17 q-9 -37 -14 -77 q-5 -39 -9 -77 q-20 -7 -39 -14 q-19 -8 -38 -18 l-115 90 q-9 7 -21 7 q-27 -7 -84 -64 q-57 -57 -77 -84 q-7 -9 -7 -20 q0 -5 2 -10 q2 -5 5 -10 q24 -28 47 -57 q22 -28 43 -58 q-20 -37 -32 -76 l-155 -24 q-10 -2 -16 -11 q-7 -9 -7 -19 l0 -185 q0 -11 7 -19 q6 -8 17 -10 l152 -24 q14 -42 35 -82 q-22 -29 -44 -57 q-22 -29 -44 -57 q-3 -4 -5 -9 q-2 -5 -2 -10 q7 -27 62 -82 q56 -55 82 -78 q9 -8 21 -8 q5 0 11 2 q5 1 9 5 l118 89 q36 -18 75 -31 l23 -153 q2 -11 11 -18 q8 -7 19 -7 l186 0 q11 0 19 7 q8 6 11 17 q10 37 15 77 q5 39 8 78 q20 6 39 14 q19 7 38 17 l115 -90 q9 -6 21 -7 q27 7 84 64 q57 58 77 85 q4 4 5 9 q2 5 2 10 q0 6 -2 11 q-2 5 -5 9 q-24 28 -46 57 q-23 28 -44 58 q20 37 32 76 l155 24 q10 2 16 11 q7 9 7 19 l0 185 ZM1920 198 q-7 12 -67 20 q-60 9 -82 11 q-12 28 -30 52 q9 20 29 70 q20 49 22 68 q0 2 -1 4 q-1 1 -3 3 q-15 9 -65 38 q-49 28 -59 32 l-6 -2 q-25 -26 -48 -54 q-23 -29 -44 -58 q-15 2 -30 2 q-15 0 -30 -2 q-11 17 -48 63 q-36 45 -50 51 q-10 -4 -59 -33 q-50 -29 -65 -37 q-2 -2 -3 -3 q-1 -2 -1 -4 q2 -18 22 -68 q20 -50 29 -70 q-18 -24 -30 -52 q-22 -2 -82 -11 q-60 -8 -67 -20 l0 -140 q7 -12 67 -20 q60 -9 82 -11 q12 -28 30 -52 q-9 -20 -29 -70 q-20 -50 -22 -68 q0 -2 1 -3 q1 -2 3 -4 q15 -9 65 -38 q49 -29 59 -33 q14 6 50 52 q37 46 48 63 q15 -2 30 -2 q15 0 30 2 q11 -17 48 -63 q36 -46 50 -52 q10 4 59 33 q50 29 65 38 q4 3 4 7 q-2 19 -22 68 q-20 50 -29 70 q18 24 30 52 q22 2 82 11 q60 8 67 20 l0 140 ZM1920 1222 q-7 12 -67 20 q-60 9 -82 11 q-12 28 -30 52 q9 20 29 70 q20 49 22 68 q0 2 -1 4 q-1 1 -3 3 q-15 9 -65 38 q-49 28 -59 32 l-6 -2 q-25 -26 -48 -54 q-23 -29 -44 -58 q-15 2 -30 2 q-15 0 -30 -2 q-11 17 -48 63 q-36 45 -50 51 q-10 -4 -59 -33 q-50 -29 -65 -37 q-2 -2 -3 -3 q-1 -2 -1 -4 q2 -18 22 -68 q20 -50 29 -70 q-18 -24 -30 -52 q-22 -2 -82 -11 q-60 -8 -67 -20 l0 -140 q7 -12 67 -20 q60 -9 82 -11 q12 -28 30 -52 q-9 -20 -29 -70 q-20 -50 -22 -68 q0 -2 1 -3 q1 -2 3 -4 q15 -9 65 -38 q49 -29 59 -33 q14 6 50 52 q37 46 48 63 q15 -2 30 -2 q15 0 30 2 q11 -17 48 -63 q36 -46 50 -52 q10 4 59 33 q50 29 65 38 q4 3 4 7 q-2 19 -22 68 q-20 50 -29 70 q18 24 30 52 q22 2 82 11 q60 8 67 20 l0 140 Z" /><glyph glyph-name="comments" unicode="&#xf086;" d="M1408 768 q-8 218 -206 362 q-199 145 -498 150 q-299 -5 -498 -150 q-198 -144 -206 -362 q1 -123 72 -226 q71 -103 194 -175 q-26 -61 -57 -98 q-30 -37 -60 -68 q-9 -9 -16 -20 q-6 -10 -4 -24 q0 0 0 0 q3 -13 12 -21 q8 -8 20 -8 q2 0 3 0 q45 6 86 16 q76 20 146 52 q70 32 132 76 q42 -8 86 -12 q44 -4 90 -4 q299 5 498 150 q198 144 206 362 l0 0 ZM1792 512 q-2 126 -76 232 q-75 105 -203 176 q23 -74 23 -152 q-1 -135 -67 -254 q-66 -120 -192 -212 q-117 -84 -264 -129 q-147 -45 -309 -45 q-22 0 -44 1 q-22 1 -44 3 q95 -62 215 -97 q120 -34 257 -35 q46 0 90 4 q44 4 86 12 q62 -44 132 -76 q70 -32 146 -52 q41 -10 86 -16 q12 -1 22 7 q10 8 13 22 q0 0 0 0 q2 14 -4 24 q-7 11 -16 20 q-30 31 -60 68 q-31 37 -57 98 q123 71 194 175 q71 103 72 226 l0 0 Z" /><glyph glyph-name="thumbs_up_alt" unicode="&#xf087;" d="M256 192 q-1 -27 -19 -45 q-18 -18 -45 -19 q-27 1 -45 19 q-18 18 -19 45 q1 27 19 45 q18 18 45 19 q27 -1 45 -19 q18 -18 19 -45 l0 0 ZM1408 768 q0 -32 -20 -77 q-19 -46 -55 -51 q16 -19 25 -48 q10 -30 10 -55 q0 -35 -14 -65 q-13 -30 -39 -54 q9 -16 14 -33 q4 -18 4 -36 q0 -36 -17 -72 q-16 -35 -48 -54 q5 -27 5 -56 q-1 -90 -54 -129 q-52 -39 -138 -38 l-121 0 q-88 1 -174 22 q-85 22 -168 51 q-43 16 -100 35 q-58 18 -102 20 l-32 0 l0 640 l32 0 q63 9 134 93 q72 84 109 136 q19 23 37 46 q19 23 40 45 q66 81 76 174 q11 93 52 146 q100 -1 131 -52 q32 -51 29 -140 q-6 -86 -48 -160 q-42 -74 -48 -160 l352 0 q52 -2 89 -38 q37 -37 39 -90 l0 0 ZM1536 769 q-3 107 -76 179 q-73 73 -180 76 l-176 0 q23 46 35 93 q13 47 13 99 q1 50 -6 95 q-6 46 -29 91 q-38 72 -106 103 q-68 32 -147 31 q-26 0 -49 -10 q-23 -10 -41 -27 q-68 -78 -79 -173 q-11 -94 -49 -147 q-28 -31 -55 -63 q-27 -32 -52 -65 q-25 -33 -65 -82 q-41 -50 -72 -73 l-274 0 q-55 -1 -91 -37 q-36 -36 -37 -91 l0 -640 q1 -55 37 -91 q36 -36 91 -37 l288 0 q24 -2 69 -16 q44 -15 69 -24 q99 -36 199 -61 q101 -26 207 -27 l93 0 l36 0 q141 1 226 79 q85 78 86 221 q29 38 45 84 q15 46 15 94 q0 22 -3 43 q19 33 28 70 q10 36 10 74 q0 17 -2 35 q-2 17 -7 34 q24 36 37 78 q12 41 12 85 l0 0 Z" /><glyph glyph-name="thumbs_down_alt" unicode="&#xf088;" d="M256 1088 q-1 -27 -19 -45 q-18 -18 -45 -19 q-27 1 -45 19 q-18 18 -19 45 q1 27 19 45 q18 18 45 19 q27 -1 45 -19 q18 -18 19 -45 l0 0 ZM1408 512 q-2 -53 -39 -89 q-37 -37 -89 -39 l-352 0 q6 -86 48 -160 q42 -74 48 -160 q3 -89 -29 -140 q-31 -51 -131 -52 q-41 53 -52 146 q-10 93 -76 174 q-21 22 -40 45 q-18 23 -37 46 q-37 52 -109 136 q-71 84 -134 93 l-32 0 l0 640 l32 0 q44 2 102 20 q57 19 100 35 q83 30 168 51 q86 21 174 22 l128 0 q84 1 134 -40 q50 -40 51 -127 q0 -29 -5 -56 q32 -19 48 -54 q17 -36 17 -72 q0 -18 -4 -36 q-5 -17 -14 -33 q26 -24 39 -54 q14 -30 14 -65 q0 -25 -10 -54 q-9 -30 -25 -49 q36 -5 55 -50 q20 -46 20 -78 l0 0 ZM1536 511 q0 44 -12 85 q-13 42 -37 78 q5 17 7 34 q2 18 2 35 q0 38 -10 74 q-9 37 -28 70 q3 22 3 43 q0 48 -15 94 q-16 46 -45 84 l0 5 q-2 141 -87 218 q-86 76 -225 77 l-112 0 q-114 -1 -215 -25 q-101 -25 -208 -63 q-25 -9 -69 -24 q-45 -14 -69 -16 l-288 0 q-55 -1 -91 -37 q-36 -36 -37 -91 l0 -640 q1 -55 37 -91 q36 -36 91 -37 l274 0 q31 -23 72 -73 q40 -49 65 -82 q25 -33 52 -65 q27 -32 55 -62 q37 -54 49 -148 q11 -95 79 -173 q18 -17 41 -27 q23 -10 49 -10 q79 -1 147 31 q68 31 106 103 q23 45 29 91 q7 46 6 95 q0 52 -13 99 q-12 47 -35 93 l176 0 q107 3 180 76 q73 73 76 179 l0 0 Z" /><glyph glyph-name="star_half" unicode="&#xf089;" d="M832 1504 l0 0 q-17 -1 -30 -13 q-12 -13 -19 -28 l-225 -455 l-502 -73 q-20 -3 -37 -13 q-18 -11 -19 -33 q0 -14 8 -26 q8 -12 17 -22 l364 -354 l-86 -500 q-1 -5 -1 -10 q-1 -5 -1 -10 q0 -20 10 -35 q10 -14 32 -15 q10 0 20 3 q10 4 20 9 l449 236 l0 0 l0 1339 Z" /><glyph glyph-name="heart_empty" unicode="&#xf08a;" d="M1664 940 q-11 -142 -93 -245 q-81 -104 -95 -111 l-580 -559 l-581 560 q-13 6 -94 110 q-81 103 -93 245 q7 206 115 275 q108 70 235 65 q116 -8 221 -88 q105 -80 148 -135 q20 -22 49 -22 q29 0 49 22 q43 55 148 135 q105 80 221 88 q127 5 235 -65 q108 -69 115 -275 l0 0 ZM1792 940 q-2 222 -127 344 q-125 122 -351 124 q-134 -6 -245 -79 q-111 -72 -173 -137 q-62 65 -173 137 q-111 73 -245 79 q-226 -2 -351 -124 q-125 -122 -127 -344 q14 -185 111 -311 q98 -127 117 -137 l624 -602 q9 -9 21 -13 q11 -5 23 -5 q12 0 24 5 q11 4 20 13 l623 600 q20 12 118 138 q98 127 111 312 l0 0 Z" /><glyph glyph-name="signout" unicode="&#xf08b;" d="M640 96 q-2 26 -23 30 q-21 3 -41 2 l-288 0 q-68 2 -113 47 q-45 45 -47 113 l0 704 q2 68 47 113 q45 45 113 47 l320 0 q32 3 33 38 q1 34 -1 58 q0 13 -10 22 q-9 10 -22 10 l-320 0 q-122 -3 -204 -84 q-81 -82 -84 -204 l0 -704 q3 -122 84 -204 q82 -81 204 -84 l320 0 q32 3 33 38 q1 34 -1 58 l0 0 ZM1568 640 q0 13 -5 24 q-5 12 -14 21 l-544 544 q-9 9 -21 14 q-11 5 -24 5 q-27 -1 -45 -19 q-18 -18 -19 -45 l0 -288 l-448 0 q-27 -1 -45 -19 q-18 -18 -19 -45 l0 -384 q1 -27 19 -45 q18 -18 45 -19 l448 0 l0 -288 q1 -27 19 -45 q18 -18 45 -19 q13 0 24 5 q12 5 21 14 l544 544 q9 9 14 21 q5 11 5 24 l0 0 Z" /><glyph glyph-name="linkedin_sign" unicode="&#xf08c;" d="M237 122 l0 694 l231 0 l0 -694 l-231 0 ZM483 1030 q-1 -51 -35 -85 q-35 -34 -96 -35 l0 0 l-1 0 q-59 1 -93 35 q-34 34 -35 85 q1 52 36 86 q35 33 95 34 q60 -1 94 -34 q34 -34 35 -86 l0 0 ZM1068 122 l0 371 q1 72 -27 114 q-27 42 -89 43 q-48 -1 -77 -27 q-29 -25 -42 -57 q-4 -11 -6 -26 q-1 -15 -1 -30 l0 -388 l-231 0 l0 0 q2 456 1 583 q-1 127 -1 111 l231 0 l0 -101 l-2 0 q21 39 69 77 q48 37 140 40 q116 0 190 -76 q74 -77 76 -236 l0 -398 l-231 0 ZM1536 1120 q-3 122 -84 204 q-82 81 -204 84 l-960 0 q-122 -3 -204 -84 q-81 -82 -84 -204 l0 -960 q3 -122 84 -204 q82 -81 204 -84 l960 0 q122 3 204 84 q81 82 84 204 l0 960 Z" /><glyph glyph-name="pushpin" unicode="&#xf08d;" d="M480 672 q0 -14 -9 -23 q-9 -9 -23 -9 q-14 0 -23 9 q-9 9 -9 23 l0 448 q0 14 9 23 q9 9 23 9 q14 0 23 -9 q9 -9 9 -23 l0 -448 ZM1152 320 q-4 128 -78 222 q-75 93 -178 98 l0 512 q54 1 90 38 q37 36 38 90 q-1 54 -38 90 q-36 37 -90 38 l-640 0 q-54 -1 -90 -38 q-37 -36 -38 -90 q1 -54 38 -90 q36 -37 90 -38 l0 -512 q-103 -5 -177 -98 q-75 -94 -79 -222 q1 -27 19 -45 q18 -18 45 -19 l404 0 l76 -485 q2 -12 11 -19 q9 -8 21 -8 q1 0 1 0 q12 0 21 9 q8 8 10 20 l51 483 l429 0 q27 1 45 19 q18 18 19 45 l0 0 Z" /><glyph glyph-name="external_link" unicode="&#xf08e;" d="M1408 608 q0 14 -9 23 q-9 9 -23 9 l-64 0 q-14 0 -23 -9 q-9 -9 -9 -23 l0 -320 q-2 -68 -47 -113 q-45 -45 -113 -47 l-832 0 q-68 2 -113 47 q-45 45 -47 113 l0 832 q2 68 47 113 q45 45 113 47 l704 0 q14 0 23 9 q9 9 9 23 l0 64 q0 14 -9 23 q-9 9 -23 9 l-704 0 q-122 -3 -204 -84 q-81 -82 -84 -204 l0 -832 q3 -122 84 -204 q82 -81 204 -84 l832 0 q122 3 204 84 q81 82 84 204 l0 320 ZM1792 1472 q-1 27 -19 45 q-18 18 -45 19 l-512 0 q-27 -1 -45 -19 q-18 -18 -19 -45 q0 -13 5 -24 q5 -12 14 -21 l176 -176 l-652 -652 q-5 -5 -7 -11 q-3 -6 -3 -12 q0 -6 3 -12 q2 -6 7 -11 l114 -114 q5 -5 11 -7 q6 -3 12 -3 q6 0 12 3 q6 2 11 7 l652 652 l176 -176 q9 -9 21 -14 q11 -5 24 -5 q27 1 45 19 q18 18 19 45 l0 512 Z" /><glyph glyph-name="signin" unicode="&#xf090;" d="M1184 640 q0 13 -5 24 q-5 12 -14 21 l-544 544 q-9 9 -21 14 q-11 5 -24 5 q-27 -1 -45 -19 q-18 -18 -19 -45 l0 -288 l-448 0 q-27 -1 -45 -19 q-18 -18 -19 -45 l0 -384 q1 -27 19 -45 q18 -18 45 -19 l448 0 l0 -288 q1 -27 19 -45 q18 -18 45 -19 q13 0 24 5 q12 5 21 14 l544 544 q9 9 14 21 q5 11 5 24 l0 0 ZM1536 992 q-3 122 -84 204 q-82 81 -204 84 l-320 0 q-32 -3 -33 -37 q-1 -35 1 -59 q2 -26 23 -30 q21 -3 41 -2 l288 0 q68 -2 113 -47 q45 -45 47 -113 l0 -704 q-2 -68 -47 -113 q-45 -45 -113 -47 l-320 0 q-32 -3 -33 -37 q-1 -35 1 -59 q0 -13 10 -22 q9 -10 22 -10 l320 0 q122 3 204 84 q81 82 84 204 l0 704 Z" /><glyph glyph-name="trophy" unicode="&#xf091;" d="M458 653 q-150 35 -239 116 q-89 81 -91 159 l0 96 l256 0 q1 -118 21 -210 q21 -92 53 -161 l0 0 ZM1536 928 q-2 -78 -91 -159 q-89 -81 -239 -116 q32 69 53 161 q20 92 21 210 l256 0 l0 -96 ZM1664 1056 q-1 41 -28 68 q-27 27 -68 28 l-288 0 l0 96 q-2 68 -47 113 q-45 45 -113 47 l-576 0 q-68 -2 -113 -47 q-45 -45 -47 -113 l0 -96 l-288 0 q-41 -1 -68 -28 q-27 -27 -28 -68 l0 -128 q5 -149 154 -273 q149 -124 388 -142 q31 -38 56 -61 q25 -24 39 -34 q39 -36 53 -75 q15 -39 14 -87 q1 -50 -28 -88 q-29 -38 -100 -40 q-75 -1 -132 -44 q-57 -43 -60 -116 l0 -64 q0 -14 9 -23 q9 -9 23 -9 l832 0 q14 0 23 9 q9 9 9 23 l0 64 q-3 73 -60 116 q-57 43 -132 44 q-71 2 -100 40 q-29 38 -28 88 q-1 48 14 87 q14 39 53 75 q14 10 39 34 q26 23 56 61 q239 18 388 142 q149 124 154 273 l0 128 Z" /><glyph glyph-name="github_sign" unicode="&#xf092;" d="M519 336 q-2 -2 -6 -2 q-4 1 -8 4 q-3 3 -4 7 q0 4 1 6 q2 2 6 2 q4 -1 8 -4 q3 -3 4 -7 q1 -4 -1 -6 l0 0 ZM491 377 q2 -4 2 -8 q0 -3 -2 -5 l0 0 q-2 -1 -6 0 q-3 1 -6 5 q-2 3 -2 7 q0 3 2 5 q3 1 6 0 q4 -1 6 -4 l0 0 ZM450 417 q-1 -2 -3 -2 q-3 -1 -6 0 q-3 2 -4 4 q-1 2 0 4 q1 2 3 3 q3 0 5 -1 q3 -2 4 -4 q2 -2 1 -4 l0 0 ZM471 394 q-2 -2 -5 -1 q-4 1 -6 3 q-2 3 -3 6 q0 3 2 5 q2 2 5 1 q3 -1 5 -4 q3 -2 3 -5 q1 -3 -1 -5 l0 0 ZM557 319 q-2 -3 -5 -4 q-3 -1 -8 0 q-5 2 -7 5 q-3 3 -2 6 q2 3 5 4 q3 1 8 0 q5 -2 7 -5 q3 -3 2 -6 l0 0 ZM599 316 q0 -3 -3 -5 q-3 -3 -8 -3 q-5 0 -8 3 q-3 2 -3 5 q0 3 3 6 q2 2 7 2 q5 0 9 -2 q3 -3 3 -6 l0 0 ZM638 323 q0 -3 -3 -6 q-2 -3 -7 -4 q-5 -1 -8 1 q-3 2 -4 5 q-1 3 2 6 q2 2 7 3 q5 1 8 -1 q4 -1 5 -4 l0 0 ZM1280 640 q-3 -172 -99 -302 q-96 -130 -251 -184 q-19 -3 -27 5 q-8 9 -8 20 q0 14 1 51 q0 37 0 89 q0 36 -11 60 q-10 23 -24 35 q89 6 160 58 q70 51 74 195 q0 42 -14 76 q-14 34 -39 61 q6 10 10 46 q4 36 -15 90 q-37 5 -87 -22 q-49 -26 -54 -31 q-31 9 -63 13 q-32 4 -65 4 q-33 0 -65 -4 q-32 -4 -63 -13 q-5 5 -54 31 q-50 27 -87 22 q-19 -54 -15 -90 q4 -36 10 -46 q-25 -27 -39 -61 q-14 -34 -14 -76 q4 -143 74 -195 q71 -52 160 -58 q-11 -10 -20 -27 q-9 -17 -13 -42 q-24 -13 -68 -13 q-45 0 -81 56 q-23 35 -49 45 q-27 9 -29 8 q-33 -2 -21 -16 q13 -14 17 -16 q26 -14 41 -43 q16 -28 16 -31 q30 -64 97 -65 q67 -1 75 4 q1 -33 1 -59 q0 -26 0 -36 q0 -11 -8 -20 q-8 -8 -27 -5 q-155 54 -251 184 q-96 130 -99 302 q5 218 150 362 q144 145 362 150 q218 -5 362 -150 q145 -144 150 -362 l0 0 ZM1536 1120 q-3 122 -84 204 q-82 81 -204 84 l-960 0 q-122 -3 -204 -84 q-81 -82 -84 -204 l0 -960 q3 -122 84 -204 q82 -81 204 -84 l960 0 q122 3 204 84 q81 82 84 204 l0 960 Z" /><glyph glyph-name="upload_alt" unicode="&#xf093;" d="M1280 64 q-1 -27 -19 -45 q-18 -18 -45 -19 q-27 1 -45 19 q-18 18 -19 45 q1 27 19 45 q18 18 45 19 q27 -1 45 -19 q18 -18 19 -45 l0 0 ZM1536 64 q-1 -27 -19 -45 q-18 -18 -45 -19 q-27 1 -45 19 q-18 18 -19 45 q1 27 19 45 q18 18 45 19 q27 -1 45 -19 q18 -18 19 -45 l0 0 ZM1664 288 q-1 41 -28 68 q-27 27 -68 28 l-427 0 q-21 -57 -69 -92 q-49 -35 -112 -36 l-256 0 q-63 1 -111 36 q-49 35 -70 92 l-427 0 q-41 -1 -68 -28 q-27 -27 -28 -68 l0 -320 q1 -41 28 -68 q27 -27 68 -28 l1472 0 q41 1 68 28 q27 27 28 68 l0 320 ZM1339 936 q7 18 4 36 q-4 19 -18 33 l-448 448 q-9 10 -21 14 q-12 5 -24 5 q-12 0 -24 -5 q-12 -4 -21 -14 l-448 -448 q-14 -14 -18 -33 q-3 -18 4 -36 q8 -18 24 -29 q15 -11 35 -11 l256 0 l0 -448 q1 -27 19 -45 q18 -18 45 -19 l256 0 q27 1 45 19 q18 18 19 45 l0 448 l256 0 q20 0 36 11 q15 11 23 29 l0 0 Z" /><glyph glyph-name="lemon" unicode="&#xf094;" d="M1407 710 q-4 -214 -132 -405 q-128 -191 -329 -268 q-64 -21 -140 -29 q-76 -7 -144 -7 q-85 2 -169 16 q-85 13 -170 15 q-37 -1 -73 -11 q-36 -10 -73 -11 q-23 1 -34 15 q-12 14 -12 36 q1 33 11 65 q10 33 11 67 q-2 61 -12 121 q-11 59 -13 120 q-2 186 60 370 q62 184 212 304 q45 33 98 58 q52 25 104 45 q65 27 132 47 q67 21 137 22 q89 -3 176 -24 q86 -21 175 -24 q29 1 59 5 q29 3 58 4 q3 0 7 0 q3 0 6 -1 q7 -12 8 -26 q2 -15 2 -29 q-1 -34 -5 -68 q-4 -34 -5 -68 q0 -39 8 -67 q8 -27 22 -62 q12 -35 19 -102 q6 -68 6 -108 l0 0 ZM1535 712 q0 53 -8 130 q-9 77 -26 125 q-9 23 -15 40 q-6 16 -6 42 q1 34 5 68 q4 34 5 68 q1 80 -35 132 q-35 51 -120 53 q-29 -1 -58 -5 q-29 -4 -57 -5 q-87 3 -174 24 q-86 21 -175 24 q-83 -1 -161 -24 q-79 -22 -155 -54 q-60 -23 -120 -52 q-60 -29 -112 -68 q-175 -139 -250 -349 q-75 -210 -73 -428 q2 -61 13 -121 q10 -60 12 -121 q-1 -34 -11 -67 q-10 -33 -11 -68 q2 -74 50 -128 q48 -53 124 -56 q37 2 74 15 q36 12 72 14 q85 -2 169 -14 q85 -13 170 -15 q79 -1 165 9 q85 9 161 35 q242 92 392 315 q150 223 155 481 l0 0 Z" /><glyph glyph-name="phone" unicode="&#xf095;" d="M1408 296 q0 5 0 11 q-1 5 -3 10 q-7 16 -33 31 q-26 14 -43 22 q-43 24 -86 48 q-43 23 -85 48 q-20 13 -43 29 q-23 16 -46 17 q-48 -11 -105 -90 q-57 -80 -99 -91 q-21 1 -44 14 q-23 13 -42 25 q-136 75 -235 174 q-99 99 -174 235 q-12 19 -25 42 q-13 23 -14 44 q11 42 91 99 q79 57 90 105 q-1 23 -17 46 q-16 23 -29 43 q-25 42 -48 85 q-24 43 -48 86 q-8 17 -22 43 q-15 26 -31 33 q-5 2 -10 3 q-6 0 -11 0 q-29 -1 -71 -10 q-41 -9 -68 -21 q-36 -17 -62 -52 q-26 -35 -44 -70 q-24 -44 -37 -90 q-14 -46 -14 -96 q1 -69 23 -134 q21 -65 46 -128 q16 -46 37 -90 q21 -44 46 -85 q83 -132 216 -264 q132 -133 264 -216 q41 -25 85 -46 q44 -21 90 -37 q63 -25 128 -46 q65 -22 134 -23 q50 0 96 14 q46 13 90 37 q35 18 70 44 q35 26 52 62 q12 27 21 68 q9 42 10 71 l0 0 Z" /><glyph glyph-name="check_empty" unicode="&#xf096;" d="M1120 1280 q68 -2 113 -47 q45 -45 47 -113 l0 -832 q-2 -68 -47 -113 q-45 -45 -113 -47 l-832 0 q-68 2 -113 47 q-45 45 -47 113 l0 832 q2 68 47 113 q45 45 113 47 l832 0 ZM1408 1120 q-3 122 -84 204 q-82 81 -204 84 l0 0 l-832 0 q-122 -3 -204 -84 q-81 -82 -84 -204 l0 -832 q3 -122 84 -204 q82 -81 204 -84 l832 0 q122 3 204 84 q81 82 84 204 l0 832 Z" /><glyph glyph-name="bookmark_empty" unicode="&#xf097;" d="M1152 1280 l0 -1242 l-423 406 l-89 85 l-89 -85 l-423 -406 l0 1242 l1024 0 ZM1164 1408 q-83 0 -524 0 q-441 0 -524 0 q-23 0 -44 -9 q-33 -13 -52 -41 q-20 -28 -20 -62 l0 -1289 q0 -34 20 -62 q19 -28 52 -41 q21 -9 44 -9 q23 0 45 9 q21 8 38 24 l441 424 l441 -424 q17 -16 39 -24 q21 -8 44 -8 q11 0 22 2 q11 2 22 6 q33 13 53 41 q19 28 19 62 l0 1289 q0 34 -19 62 q-20 28 -53 41 q-21 9 -44 9 l0 0 Z" /><glyph glyph-name="phone_sign" unicode="&#xf098;" d="M1280 343 q0 -21 -7 -51 q-7 -30 -15 -50 q-27 -50 -98 -82 q-70 -31 -127 -32 q-50 1 -97 16 q-47 16 -93 34 q-170 66 -321 216 q-150 151 -216 321 q-18 46 -34 93 q-15 47 -16 97 q1 57 32 127 q32 71 82 98 q20 8 50 15 q30 7 51 7 q4 0 8 0 q4 -1 8 -2 q17 -13 55 -82 q37 -69 53 -98 q9 -14 21 -31 q11 -17 12 -34 q-8 -34 -65 -76 q-58 -41 -66 -72 q1 -15 10 -32 q10 -17 18 -31 q55 -98 127 -170 q72 -72 170 -127 q14 -8 31 -18 q17 -9 32 -10 q31 8 72 66 q42 57 76 65 q17 -1 34 -12 q17 -12 31 -21 q29 -16 98 -53 q69 -38 82 -55 q1 -4 2 -8 q0 -4 0 -8 l0 0 ZM1536 1120 q-3 122 -84 204 q-82 81 -204 84 l-960 0 q-122 -3 -204 -84 q-81 -82 -84 -204 l0 -960 q3 -122 84 -204 q82 -81 204 -84 l960 0 q122 3 204 84 q81 82 84 204 l0 960 Z" /><glyph glyph-name="twitter" unicode="&#xf099;" d="M1308 1491 l-415 -476 l-360 476 l-519 0 l620 -813 l-588 -674 l252 0 l454 520 l398 -520 l508 0 l-649 858 l552 629 l-253 0 ZM1224 108 l-932 1219 l154 0 l921 -1219 l-143 0 Z" /><glyph glyph-name="facebook" unicode="&#xf09a;" d="M959 1524 q-22 3 -84 8 q-61 4 -144 4 q-172 -1 -275 -101 q-103 -100 -106 -290 l0 -218 l-255 0 l0 -296 l255 0 l0 -759 l306 0 l0 759 l254 0 l39 296 l-293 0 l0 189 q-2 65 27 104 q29 39 119 40 l157 0 l0 264 Z" /></font>
</defs>
</svg>
